<?xml version="1.0" standalone="no"?>
<!DOCTYPE svg PUBLIC "-//W3C//DTD SVG 1.1//EN" "http://www.w3.org/Graphics/SVG/1.1/DTD/svg11.dtd" >
<svg>
<metadata>
Created by FontForge 20090914 at Wed Dec  7 04:01:56 2016
 By www-data
</metadata>
<defs>
<font id="OptimaItalic" horiz-adv-x="1136" >
  <font-face 
    font-family="Optima"
    font-weight="400"
    font-style="italic"
    font-stretch="normal"
    units-per-em="2048"
    panose-1="2 11 114 0 0 0 0 0 0 0"
    ascent="1638"
    descent="-410"
    x-height="960"
    cap-height="1408"
    bbox="-112 -544.001 2272 1913"
    underline-thickness="0"
    underline-position="0"
    unicode-range="U+0020-U+F002"
  />
<missing-glyph horiz-adv-x="1536" 
d="M256 0v1280h1024v-1280h-1024zM1248 32v1216h-960v-1216h960z" />
    <glyph glyph-name=".notdef" horiz-adv-x="1536" 
d="M256 0v1280h1024v-1280h-1024zM1248 32v1216h-960v-1216h960z" />
    <glyph glyph-name="space" unicode=" " horiz-adv-x="559" 
 />
    <glyph glyph-name="exclam" unicode="!" horiz-adv-x="672" 
d="M224 112c10.667 39.333 30.167 69 58.5 89s58.833 30 91.5 30c31.333 0 57.833 -8.83301 79.5 -26.5s32.5 -41.167 32.5 -70.5c0 -11.333 -2 -24 -6 -38c-10 -36 -29.167 -64.667 -57.5 -86s-58.5 -32 -90.5 -32c-30 0 -55.5 11.167 -76.5 33.5s-31.5 55.833 -31.5 100.5
zM384 352l80 880c4 60.667 19.5 108.667 46.5 144s56.167 53 87.5 53c24 0 44 -10.833 60 -32.5s24 -52.167 24 -91.5s-8.66699 -85 -26 -137l-224 -816h-48z" />
    <glyph glyph-name="quotedbl" unicode="&#x22;" horiz-adv-x="672" 
d="M256 880l96.001 463.997c4 26 14.167 45.5 30.5 58.5s34.833 19.5 55.5 19.5c17.333 0 32 -4.66699 44 -14s18 -22.666 18 -39.999c0 -8 -1.33301 -16 -4 -24l-96 -448c-4 -33.333 -16.833 -61.166 -38.5 -83.499s-42.834 -33.5 -63.501 -33.5c-30.667 0 -46 21 -46 63
c0 12.667 1.33301 25.334 4 38.001zM592.001 879.997l80.001 448.001c4 31.333 15.5 56.166 34.5 74.499s38.5 27.5 58.5 27.5c16 0 29.167 -5.66699 39.5 -17s15.5 -27.666 15.5 -48.999c0 -12.667 -1.33301 -24.667 -4 -36l-80 -448
c-4 -32.667 -14.333 -57.834 -31 -75.501s-35.334 -26.5 -56.001 -26.5c-16.667 0 -31 6.33301 -43 19s-18 29.667 -18 51c0 11.333 1.33301 22 4 32z" />
    <glyph glyph-name="numbersign" unicode="#" 
d="M400 560l80 256h-224l32 128h240l144 416h128l-144 -416h256l144 416h128l-144 -416h192l-32 -128h-208l-96 -256h208l-16 -128h-224l-144 -432h-128l144 432h-256l-160 -432h-128l160 432h-224l32 128h240zM784 560l80 256h-256l-80 -256h256z" />
    <glyph glyph-name="dollar" unicode="$" 
d="M352 944c13.333 150 65.3311 254.831 155.998 314.498s182.667 98.834 276 117.501l32 160c16 -8 32 -12 48 -12s32 4 48 12l-32 -160c46 0 87.833 -4.5 125.5 -13.5s69.667 -20.5 96 -34.5s48.5 -30 66.5 -48c-13.333 -13.333 -28.666 -37.666 -45.999 -72.999l-50 -103
h-16c-21.333 71.333 -48.333 118.5 -81 141.5s-69.667 34.5 -111 34.5l-96 -480c88 -42 152.333 -78.333 193 -109s66.667 -58.834 78 -84.501s17 -57.5 17 -95.5v-31c0 -52 -12.167 -111.833 -36.5 -179.5s-70 -131 -137 -190s-158.5 -95.833 -274.5 -110.5l-32 -224
c-42.667 0 -80 -5.33301 -112 -16l48 224c-53.333 0 -100 1.66699 -140 5s-80.667 12 -122 26s-76.666 35.667 -105.999 65c24 24 43.333 53.833 58 89.5s22 69.834 22 102.501h32c13.333 -40 34 -74.833 62 -104.5s58.333 -52 91 -67s63.667 -22.5 93 -22.5
c12 0 20.667 0.666992 26 2l112 560c-68.667 19.333 -123 41.333 -163 66s-68.833 50.167 -86.5 76.5s-28.5 51.5 -32.5 75.5s-6 52.667 -6 86zM671.998 831.998l96 448c-57.333 -22.667 -106.333 -50.667 -147 -84s-71.667 -85.333 -93 -156
c-1.33301 -9.33301 -2 -16.333 -2 -21c0 -36.667 14.833 -73 44.5 -109s63.5 -62 101.5 -78zM719.998 591.998l-96 -496.001c50 4.66699 94.5 23.834 133.5 57.501s69.167 73.667 90.5 120s32 88.5 32 126.5c0 30 -7.5 57.667 -22.5 83s-34.667 47 -59 65
s-50.5 32.667 -78.5 44z" />
    <glyph glyph-name="percent" unicode="%" horiz-adv-x="1808" 
d="M432 -80l1072 1504c16 -8 34.667 -12 56 -12s40 4 56 12l-1072 -1504c-16 8 -34.667 12 -56 12s-40 -4 -56 -12zM288 960c0 62.667 15.5 125 46.5 187s77.833 113 140.5 153s139 60 229 60c111.333 0 184.5 -29.167 219.5 -87.5s52.5 -125.166 52.5 -200.499
c0 -38 -16.167 -87 -48.5 -147s-79.833 -113.333 -142.5 -160s-137.667 -72.334 -225 -77.001c-84 0 -150.333 22.333 -199 67s-73 113 -73 205zM448 1040c-12.667 -44.667 -19.001 -86.001 -19.001 -124.001c0 -50.667 11.5 -90.667 34.5 -120s55.167 -44 96.5 -44
c54.667 0 104.167 24.333 148.5 73s74.833 109.667 91.5 183c12 52.667 18 100.334 18 143.001c0 49.333 -9 88.5 -27 117.5s-47 43.5 -87 43.5c-61.333 0 -115.166 -26.333 -161.499 -79s-77.833 -117 -94.5 -193zM1280 303.999
c-12.667 -51.333 -18.998 -95.001 -18.998 -131.001c0 -80.667 33 -127.667 99 -141c10.667 -1.33301 18.667 -2 24 -2c36 0 71.167 11 105.5 33s64.166 54.667 89.499 98s43 96.333 53 159c8 50 12 91.667 12 125c0 50 -9.5 85.5 -28.5 106.5s-50.833 34.5 -95.5 40.5
c-70.667 0 -122.834 -26.167 -156.501 -78.5s-61.5 -122.166 -83.5 -209.499zM1120 303.998c11.333 61.333 34.8311 118.668 70.498 172.001s82.834 96.666 141.501 129.999s126.667 50 204 50c104.667 0 170.834 -28.667 198.501 -86s41.5 -130 41.5 -218
c0 -61.333 -18 -122 -54 -182s-84.167 -108.833 -144.5 -146.5s-124.833 -56.5 -193.5 -56.5c-10.667 0 -18.667 0.333008 -24 1c-87.333 6.66699 -149.833 37 -187.5 91s-56.5 117 -56.5 189c0 13.333 1.33301 32 4 56z" />
    <glyph glyph-name="ampersand" unicode="&#x26;" horiz-adv-x="1472" 
d="M656 768c-44.667 64 -67 139.667 -67 227c0 66 14.167 127.833 42.5 185.5s71.5 104.667 129.5 141s129.667 54.5 215 54.5c81.333 0 141.333 -15 180 -45s58 -70.333 58 -121c0 -47.333 -16.333 -98.833 -49 -154.5s-76.834 -106.5 -132.501 -152.5
s-117.167 -80.333 -184.5 -103l272 -432c56 56 113.333 120.667 172 194s108 142 148 206c21.333 -42.667 42.666 -74.667 63.999 -96c-33.333 -44 -66.166 -84.167 -98.499 -120.5l-105 -113l-132.5 -134.5l192 -304c-48 8 -92.667 12 -134 12s-82 -4 -122 -12l-96 160
c-54 -48.667 -104.333 -87 -151 -115s-95.167 -47.833 -145.5 -59.5s-111.5 -17.5 -183.5 -17.5c-102.667 0 -184.334 25 -245.001 75s-91 115.667 -91 197c4 70.667 22.333 134.667 55 192s72.334 106.5 119.001 147.5s85.834 71.167 117.501 90.5s89.167 52 172.5 98z
M832 848c67.333 34 128.5 86.501 183.5 157.501s82.5 135.167 82.5 192.5s-30 95.333 -90 114c-19.333 5.33301 -36.333 8 -51 8c-38 0 -72.5 -12.333 -103.5 -37s-55.5 -57.334 -73.5 -98.001s-27 -84 -27 -130c0 -80.667 26.333 -149.667 79 -207zM976 224.001
l-288.001 479.999c-4.66699 -4 -33.167 -25.167 -85.5 -63.5s-90.5 -70 -114.5 -95s-45.5 -57.167 -64.5 -96.5s-32.167 -87.666 -39.5 -144.999c0 -40.667 11.333 -79.167 34 -115.5s54.334 -65.333 95.001 -87s85.667 -32.5 135 -32.5c110 0 219.333 51.667 328 155z" />
    <glyph glyph-name="quotesingle" unicode="'" horiz-adv-x="560" 
d="M272 864l255.999 496c24.667 45.333 55 68 91 68c18.667 0 34.834 -7.16699 48.501 -21.5s20.5 -31.5 20.5 -51.5c0 -24.667 -10.667 -49.667 -32 -75l-352 -432z" />
    <glyph glyph-name="parenleft" unicode="(" horiz-adv-x="560" 
d="M208 432c4 86.667 19.001 181.169 45.001 283.502s62.5 205.666 109.5 309.999s103.5 201.166 169.5 290.499s139.333 162.666 220 219.999l32 -48c-71.333 -82.667 -131.5 -163.667 -180.5 -243s-91 -164.833 -126 -256.5s-66.167 -197.167 -93.5 -316.5
c-24.667 -128.667 -37 -243.667 -37 -345c0 -177.333 39 -339.666 117 -486.999l-80 -32c-40 72.667 -71.667 135.167 -95 187.5s-40.833 101 -52.5 146s-19.334 89 -23.001 132s-5.5 95.833 -5.5 158.5z" />
    <glyph glyph-name="parenright" unicode=")" horiz-adv-x="560" 
d="M464 800c5.33301 76 7.99707 138.669 7.99707 188.002c0 224 -34.667 390.667 -104 500l64 32c118.667 -166 178 -354.667 178 -566c0 -12 -0.666992 -31.333 -2 -58c-8 -128.667 -26.667 -247.834 -56 -357.501s-67.666 -210.5 -114.999 -302.5s-101 -174.333 -161 -247
s-125.333 -138.334 -196 -197.001l-32 64c60 56 115 126.5 165 211.5s93.333 175 130 270s64.834 182.667 84.501 263s31.834 146.833 36.501 199.5z" />
    <glyph glyph-name="asterisk" unicode="*" horiz-adv-x="896" 
d="M592 1040l-272 112.002c42.667 42.667 74.667 80 96 112l208 -160l32 304c24 -8 45.333 -12 64 -12s40 4 64 12l-96 -320l304 192c0 -26.667 1.66699 -46.334 5 -59.001s12.333 -30.334 27 -53.001l-304 -128l256 -128c-32 -32 -58.667 -69.333 -80 -112l-224 176
l-16 -304c-24 8 -48 12 -72 12s-48 -4 -72 -12l96 304l-272 -176l-64 96z" />
    <glyph glyph-name="plus" unicode="+" horiz-adv-x="1232" 
d="M208 592h448l96 448h144l-96 -448h464l-32 -144h-464l-80 -448h-144l80 448h-448z" />
    <glyph glyph-name="comma" unicode="," horiz-adv-x="560" 
d="M64 -336h-48l224 432c25.333 53.333 51.5 92.5 78.5 117.5s52.5 37.5 76.5 37.5c17.333 0 31.5 -6.33301 42.5 -19s16.5 -28.667 16.5 -48c0 -28.667 -12.667 -58 -38 -88z" />
    <glyph glyph-name="hyphen" unicode="-" horiz-adv-x="672" 
d="M192 528h512l-32 -144h-512z" />
    <glyph glyph-name="period" unicode="." horiz-adv-x="560" 
d="M176 80c4.66699 49.333 21.832 87.833 51.499 115.5s62.834 41.5 99.501 41.5c29.333 0 54.166 -9.33301 74.499 -28s30.5 -45.667 30.5 -81c-4 -49.333 -20.167 -87.833 -48.5 -115.5s-60.166 -41.5 -95.499 -41.5c-28 0 -52.667 9.33301 -74 28s-34 45.667 -38 81z" />
    <glyph glyph-name="slash" unicode="/" horiz-adv-x="560" 
d="M-112 -224l928 1776c16 -8 32.667 -12 50 -12s38 4 62 12l-928 -1776c-16 8 -32.667 12 -50 12s-38 -4 -62 -12z" />
    <glyph glyph-name="zero" unicode="0" 
d="M224 720c13.333 68 35.501 139.5 66.501 214.5s72.167 148 123.5 219s112.166 128.5 182.499 172.5s148.833 66 235.5 66c88 0 160.5 -20.167 217.5 -60.5s98.5 -95.5 124.5 -165.5s39 -151.333 39 -244c0 -50.667 -4.33301 -107.334 -13 -170.001
c-23.333 -132 -56.833 -247 -100.5 -345s-94.667 -178.167 -153 -240.5s-121.5 -108.333 -189.5 -138s-139 -44.5 -213 -44.5c-243.333 8.66699 -365 142.334 -365 401.001c0 90 15 201.667 45 335zM1008 720c15.333 88.667 22.998 170.67 22.998 246.003
c0 67.333 -6 126.5 -18 177.5s-31.667 91.833 -59 122.5s-62.666 46 -105.999 46c-78 0 -144.667 -21.5 -200 -64.5s-99 -96.333 -131 -160s-56.333 -126.334 -73 -188.001s-31.334 -126.834 -44.001 -195.501c-25.333 -128.667 -38 -236.667 -38 -324
c0 -106.667 17.5 -184.334 52.5 -233.001s83.5 -76.334 145.5 -83.001c6 -0.666992 14.667 -1 26 -1c86 0 159.833 40.333 221.5 121s108.834 172.834 141.501 276.501s52.334 190.167 59.001 259.5z" />
    <glyph glyph-name="one" unicode="1" 
d="M480 0l256 1264l-256 -144c0 16 -6.66699 34 -20 54s-28 34 -44 42c37.333 11.333 86.833 29.5 148.5 54.5s125 52.5 190 82.5s112.167 53.667 141.5 71l32 -16l-272 -1408c-24 8 -51.333 12 -82 12s-62 -4 -94 -12z" />
    <glyph glyph-name="two" unicode="2" 
d="M400 1184c44 44 87.833 80.001 131.5 108.001s90 49 139 63s102.833 21 161.5 21c48.667 0 97.834 -11.5 147.501 -34.5s91 -56 124 -99s49.5 -92.5 49.5 -148.5c0 -9.33301 -0.333008 -16.666 -1 -21.999c-8.66699 -78 -25.834 -144.5 -51.501 -199.5
s-72.5 -116.5 -140.5 -184.5l-608 -544c352 0 565.333 10.667 640 32c-21.333 -85.333 -32 -144 -32 -176h-880v32l167 139.5l229 193c69.333 59.667 128.833 114 178.5 163s87.5 91.833 113.5 128.5c60 68 105 139.333 135 214s45 144 45 208c0 38.667 -5 72.5 -15 101.5
s-24.833 52.167 -44.5 69.5s-43.834 27.666 -72.501 30.999c-17.333 1.33301 -30 2 -38 2c-72.667 0 -134.667 -19.333 -186 -58s-88.666 -89.334 -111.999 -152.001h-32z" />
    <glyph glyph-name="three" unicode="3" 
d="M432 1232c30.667 35.333 65.1641 63.667 103.497 85s77 36.5 116 45.5s72.5 13.5 100.5 13.5c106 0 191.333 -22.167 256 -66.5s97 -100.166 97 -167.499c0 -10 -0.333008 -17.333 -1 -22c-4.66699 -68.667 -26.167 -131.5 -64.5 -188.5s-83.166 -102.5 -134.499 -136.5
s-97 -53.667 -137 -59c58 -14 104.833 -28 140.5 -42s66.667 -37.167 93 -69.5s39.5 -76.5 39.5 -132.5c0 -12 -0.333008 -21.333 -1 -28c-4 -89.333 -28.167 -165.5 -72.5 -228.5s-98.666 -112.833 -162.999 -149.5s-127.333 -62.834 -189 -78.501
s-112.167 -23.5 -151.5 -23.5c-42.667 0 -83.167 1.33301 -121.5 4s-77.833 10.167 -118.5 22.5s-72.667 30.166 -96 53.499l48 112l32 16c23.333 -42.667 57.333 -75.667 102 -99s93.334 -35 146.001 -35c62.667 0 122.834 15.833 180.501 47.5
s104.834 78.834 141.501 141.501s55 137.334 55 224.001c0 18 -0.333008 31.667 -1 41c-10 111.333 -83 167 -219 167c-28.667 0 -62.334 -2.33301 -101.001 -7c10.667 21.333 16 53.333 16 96c24 -4 47 -6 69 -6c75.333 0 136.5 19.667 183.5 59s80.667 85.5 101 138.5
s30.5 101.167 30.5 144.5c0 45.333 -13.5 88.666 -40.5 129.999s-72.167 62 -135.5 62c-23.333 0 -49.833 -5.66699 -79.5 -17s-59.334 -28.333 -89.001 -51s-53.5 -48 -71.5 -76l-32 -16z" />
    <glyph glyph-name="four" unicode="4" 
d="M112 416l848 944h128l-160 -848l192 16c-15.333 -47.333 -23 -83.666 -23 -108.999c0 -14.667 2.33301 -26.334 7 -35.001l-192 16l-80 -400c-32 8 -58.667 12 -80 12s-48 -4 -80 -12l80 400h-640v16zM768 512l128 656l-592 -656h464z" />
    <glyph glyph-name="five" unicode="5" 
d="M112 64l63.998 144h16c28 -46.667 66.333 -83.5 115 -110.5s101.334 -40.5 158.001 -40.5c60.667 0 118.334 16.833 173.001 50.5s100.834 86.834 138.501 159.501s61.5 165 71.5 277c0 36 -9.83301 68.667 -29.5 98s-46.834 52.666 -81.501 69.999s-74.667 26 -120 26
c-71.333 0 -143.666 -22 -216.999 -66l-32 32c18.667 56 44.667 163.833 78 323.5s50 265.167 50 316.5l32 32h640l16 -32l-25 -72c-8.66699 -25.333 -16.334 -54.666 -23.001 -87.999c-30 10 -77.167 17.167 -141.5 21.5s-131 7.16602 -200 8.49902s-141.833 2 -218.5 2
l-96 -432c74 34 150 51 228 51c60 0 115.333 -10.833 166 -32.5s91.167 -55.167 121.5 -100.5s45.5 -101.666 45.5 -168.999c0 -4.66699 -0.166992 -8.33398 -0.5 -11.001s-0.5 -6 -0.5 -10c-2.66699 -81.333 -21.5 -155.833 -56.5 -223.5s-81 -124.667 -138 -171
s-121.5 -81.833 -193.5 -106.5s-145 -37 -219 -37c-120 0 -227 30 -321 90z" />
    <glyph glyph-name="six" unicode="6" 
d="M192 400c16.667 136 45.9971 260.999 87.9971 374.999s97.333 215.5 166 304.5s149.834 158.5 243.501 208.5s197.167 75 310.5 75c24 0 48 -1 72 -3l16 -96c-40 13.333 -80 20 -120 20c-121.333 0 -226.833 -60 -316.5 -180s-162.834 -269.333 -219.501 -448
c19.333 28.667 48.833 55.334 88.5 80.001s85.167 44 136.5 58s101 21 149 21c90 0 165 -24.333 225 -73s90 -124.334 90 -227.001c0 -15.333 -0.333008 -27 -1 -35c-6 -77.333 -26.5 -149.166 -61.5 -215.499s-78.667 -121.5 -131 -165.5s-110.666 -77.667 -174.999 -101
s-127.166 -35 -188.499 -35c-69.333 0 -132.166 14.167 -188.499 42.5s-101.333 71.833 -135 130.5s-50.5 130.667 -50.5 216c0 10.667 0.666992 26.667 2 48zM911.997 431.999c7.33301 29.333 11 57.665 11 84.998c0 58.667 -16.333 107.167 -49 145.5s-84 57.5 -154 57.5
c-156.667 0 -268.667 -101.333 -336 -304c-13.333 -41.333 -20 -80.333 -20 -117c0 -47.333 10 -90.166 30 -128.499s48.5 -68.333 85.5 -90s79.833 -32.5 128.5 -32.5c61.333 0 123.5 35.833 186.5 107.5s102.167 163.834 117.5 276.501z" />
    <glyph glyph-name="seven" unicode="7" 
d="M432 1360h880v-80l-335.5 -418l-325.5 -416l-347 -462c-24 8 -48 12 -72 12s-48 -4 -72 -12v32l280.5 341l263 320l198.5 250.5l202 272.5c-34 0 -73.667 -0.666992 -119 -2s-114.166 -4 -206.499 -8s-167.333 -7.83301 -225 -11.5s-108.834 -7.16699 -153.501 -10.5
c25.333 38.667 38 84.667 38 138c0 18.667 -2 36.667 -6 54z" />
    <glyph glyph-name="eight" unicode="8" 
d="M592 752c-54.667 27.333 -97.665 58.499 -128.998 93.499s-47 78.5 -47 130.5c0 82.667 23 155 69 217s105.333 108.667 178 140s147 47 223 47c88.667 0 164.167 -20.833 226.5 -62.5s96.833 -102.167 103.5 -181.5c0.666992 -5.33301 1 -13.333 1 -24
c0 -56 -15 -107.167 -45 -153.5s-69 -85.833 -117 -118.5s-95.667 -56.667 -143 -72c82 -20 144 -57.167 186 -111.5s63 -117.833 63 -190.5c0 -78 -23.833 -155.833 -71.5 -233.5s-116 -141.167 -205 -190.5s-191.833 -74 -308.5 -74c-84 2 -153.833 16.667 -209.5 44
s-96.334 62.833 -122.001 106.5s-38.5 93.5 -38.5 149.5c0 66.667 17.333 134.834 52 204.501s81.667 130 141 181s123.666 83.833 192.999 98.5zM1024 1056c5.33301 23.333 8 44.6641 8 63.9971c0 54.667 -16.667 99.334 -50 134.001s-74.333 52 -123 52
s-95.667 -19.167 -141 -57.5s-82 -97.166 -110 -176.499c-13.333 -39.333 -20 -75.666 -20 -108.999c0 -54 16.333 -95.667 49 -125s73.667 -44 123 -44c63.333 0 121.333 23.333 174 70s82.667 110.667 90 192zM960.002 415.997
c1.33301 11.333 1.99707 28.335 1.99707 51.002c0 78.667 -17.5 140.5 -52.5 185.5s-87.5 67.5 -157.5 67.5c-38.667 0 -76.667 -9.16699 -114 -27.5s-71.666 -44.166 -102.999 -77.499s-58.666 -72.5 -81.999 -117.5s-41 -93.5 -53 -145.5
c-5.33301 -25.333 -8 -49.666 -8 -72.999c0 -62.667 17.5 -117.834 52.5 -165.501s84.167 -74.834 147.5 -81.501c4.66699 -0.666992 12 -1 22 -1c54.667 0 106.834 17.167 156.501 51.5s91.167 80.666 124.5 138.999s55 123.166 65 194.499z" />
    <glyph glyph-name="nine" unicode="9" 
d="M240 128c54.667 -44.667 112.669 -66.998 174.002 -66.998c71.333 0 142.833 31 214.5 93s139.5 154.667 203.5 278c53.333 106.667 85.333 202.667 96 288c-50.667 -60 -107 -105.333 -169 -136s-124.333 -46 -187 -46c-88 0 -162.667 29.333 -224 88s-92 138 -92 238
c0 64 13.333 128.333 40 193s64.5 123.667 113.5 177s107 95.666 174 126.999s139.167 47 216.5 47c132 0 223.667 -42.333 275 -127s77 -197 77 -337c-8 -82.667 -21.167 -160.834 -39.5 -234.501s-43.333 -145.667 -75 -216s-69.834 -136.166 -114.501 -197.499
s-96.334 -117.333 -155.001 -168c-48 -42.667 -106.833 -78.5 -176.5 -107.5s-137.5 -43.5 -203.5 -43.5c-62 0 -116.667 13 -164 39c4.66699 10 7 20.667 7 32c0 4.66699 -0.5 11.167 -1.5 19.5s-2.16699 16.666 -3.5 24.999s-2 14.833 -2 19.5zM976.002 1056
c0 66.667 -10.501 128.67 -31.501 186.003s-69.167 86 -144.5 86c-61.333 0 -115 -15.833 -161 -47.5s-83.667 -71.834 -113 -120.501s-50 -99.334 -62 -152.001c-10.667 -48 -16 -90.667 -16 -128c0 -48 7.5 -90 22.5 -126s36.833 -64 65.5 -84s63.334 -30 104.001 -30
c56 0 110.167 20.5 162.5 61.5s94.5 92.667 126.5 155s48 121.166 48 176.499c0 10 -0.333008 17.667 -1 23z" />
    <glyph glyph-name="colon" unicode=":" horiz-adv-x="560" 
d="M464 960c34 0 59.333 -9 76 -27s25 -41.333 25 -70c0 -39.333 -14.167 -75.666 -42.5 -108.999s-63.833 -50 -106.5 -50c-33.333 4 -59 16.5 -77 37.5s-27 45.833 -27 74.5c0 37.333 13.833 70.666 41.5 99.999s64.5 44 110.5 44zM256 -32
c-28.667 2.66699 -50.332 12.833 -64.999 30.5s-22 39.167 -22 64.5c0 24.667 6.66699 49.5 20 74.5s33.166 45.667 59.499 62s55.5 24.5 87.5 24.5c28.667 -2.66699 50.667 -13.5 66 -32.5s23 -42.5 23 -70.5c0 -40 -15.167 -75.5 -45.5 -106.5s-71.5 -46.5 -123.5 -46.5z
" />
    <glyph glyph-name="semicolon" unicode=";" horiz-adv-x="560" 
d="M448 720c-28.667 0 -51.501 10.334 -68.501 31.001s-25.5 46 -25.5 76c0 39.333 14.833 74 44.5 104s72.834 45 129.501 45c24 0 43.5 -11.333 58.5 -34s22.5 -49.334 22.5 -80.001c0 -39.333 -13.167 -72.833 -39.5 -100.5s-66.833 -41.5 -121.5 -41.5zM31.999 -319.999
l224 464c15.333 36.667 34.5 63.667 57.5 81s45.5 26 67.5 26c20 0 36.333 -6 49 -18s19 -28.667 19 -50c0 -32 -16.333 -66.333 -49 -103l-336 -416z" />
    <glyph glyph-name="less" unicode="&#x3c;" horiz-adv-x="1232" 
d="M208 592l1136 480l-32 -144l-944 -400l784 -416l-16 -144l-944 496z" />
    <glyph glyph-name="equal" unicode="=" horiz-adv-x="1232" 
d="M256 800h1040l-32 -144h-1040zM176 400h1040l-32 -144h-1040z" />
    <glyph glyph-name="greater" unicode="&#x3e;" horiz-adv-x="1232" 
d="M288 928l16 144l960 -496l-32 -112l-1136 -480l32 144l928 400z" />
    <glyph glyph-name="question" unicode="?" horiz-adv-x="784" 
d="M288 560c0 110 74.666 227.333 223.999 352l96 80c48.667 37.333 85.167 77.333 109.5 120s36.5 82 36.5 118c0 38.667 -12.5 70.167 -37.5 94.5s-57.833 36.5 -98.5 36.5c-60.667 0 -128 -27 -202 -81v96c22.667 22.667 54.334 40.334 95.001 53.001s82.667 19 126 19
c46.667 0 89.5 -7 128.5 -21s70.5 -36 94.5 -66s36 -67.667 36 -113c0 -74.667 -14.167 -139.334 -42.5 -194.001s-62.5 -101 -102.5 -139s-119.667 -108.333 -239 -211c-25.333 -21.333 -47.666 -50.5 -66.999 -87.5s-29 -69.5 -29 -97.5c0 -52 29.333 -78 88 -78
c18 0 36.667 2.33301 56 7l16 -16l-32 -48c-14.667 -12 -36 -18 -64 -18c-46.667 0 -90.334 17.167 -131.001 51.5s-61 81.833 -61 142.5zM271.999 128c11.333 36 29.667 63.667 55 83s52.333 29 81 29c30.667 0 55.667 -10.667 75 -32s29 -53.333 29 -96
c-4 -38 -20.833 -69.167 -50.5 -93.5s-62.167 -36.5 -97.5 -36.5c-27.333 0 -50.333 8.5 -69 25.5s-28 42.167 -28 75.5c0 16 1.66699 31 5 45z" />
    <glyph glyph-name="at" unicode="@" horiz-adv-x="1632" 
d="M240 736c20.667 86 56.001 170.333 106.001 253s112.667 157 188 223s163.166 119.5 263.499 160.5s207.833 63.5 322.5 67.5c69.333 0 137.833 -10.833 205.5 -32.5s130.167 -54.834 187.5 -99.501s102.166 -99 134.499 -163s48.5 -136.333 48.5 -217
c0 -76 -18.667 -153 -56 -231s-85.666 -149.5 -144.999 -214.5s-122.166 -117 -188.499 -156s-126.166 -58.5 -179.499 -58.5c-15.333 0 -28.333 1.33301 -39 4c-69.333 17.333 -112 65.333 -128 144c-16 -32.667 -51.5 -62.167 -106.5 -88.5s-110.167 -39.5 -165.5 -39.5
c-71.333 5.33301 -124 32 -158 80s-51 105 -51 171c0 54 11 103.667 33 149c46 100.667 113.333 187.167 202 259.5s192 108.5 310 108.5c43.333 0 78.333 -11.333 105 -34s45 -48.667 55 -78l32 96h192l-256 -560c-5.33301 -15.333 -8 -30.666 -8 -45.999
c0 -37.333 17.333 -56 52 -56c20.667 0 43.334 7.33301 68.001 22c43.333 21.333 86.666 54.833 129.999 100.5s80.5 100.167 111.5 163.5s51.833 130 62.5 200c2 16 3 32.333 3 49c0 54 -10.833 105.5 -32.5 154.5s-51.834 93 -90.501 132s-85.167 70.167 -139.5 93.5
s-111.833 35 -172.5 35c-83.333 0 -166 -14.5 -248 -43.5s-158.5 -70.833 -229.5 -125.5s-133 -120.667 -186 -198s-93.167 -163 -120.5 -257c-14 -54.667 -21 -106.667 -21 -156c0 -92 22.833 -172.333 68.5 -241s109.667 -122.334 192 -161.001s178.5 -60.667 288.5 -66
c60.667 0 128.667 12 204 36s145.666 58 210.999 102s113.666 94 144.999 150h144c-23.333 -52.667 -70.166 -110.5 -140.499 -173.5s-157.5 -116.5 -261.5 -160.5s-215.333 -66 -334 -66c-91.333 0 -185.5 18.833 -282.5 56.5s-179.167 99.834 -246.5 186.501
s-101 198 -101 334c0 60 7.33301 123.667 22 191zM1040 656c48 88 72 160.666 72 217.999s-24 86 -72 86c-55.333 -8 -107.666 -31.667 -156.999 -71s-98.333 -95.666 -147 -168.999c-55.333 -82.667 -83 -158.667 -83 -228c0 -51.333 17 -87.333 51 -108
c14 -6 27.667 -9 41 -9c44.667 0 88.667 23.5 132 70.5s97.666 117.167 162.999 210.5z" />
    <glyph glyph-name="A" unicode="A" horiz-adv-x="1360" 
d="M0 0l911.999 1424h48l352 -1424c-40 8 -77.333 12 -112 12s-72 -4 -112 -12c-35.333 228.667 -72.666 415.334 -111.999 560.001h-496c-112 -192 -213.333 -378.667 -304 -560c-24 8 -51.333 12 -82 12s-62 -4 -94 -12zM959.999 655.999l-112 496l-304 -496h416z" />
    <glyph glyph-name="B" unicode="B" horiz-adv-x="1248" 
d="M176 0l272.001 1408h352c163.333 0 282.166 -18.333 356.499 -55s111.5 -96.667 111.5 -180c0 -18.667 -1.33301 -36.334 -4 -53.001c-10.667 -68.667 -34 -128.5 -70 -179.5s-81 -92.333 -135 -124s-113.667 -53.167 -179 -64.5
c81.333 -11.333 152.333 -37.666 213 -78.999s91 -111 91 -209c0 -52 -12.833 -105.667 -38.5 -161s-61.5 -105.5 -107.5 -150.5s-102.167 -81.667 -168.5 -110s-137.5 -42.5 -213.5 -42.5h-480zM384.001 80l208 0.000976562c70 0 135 19 195 57s108 86.667 144 146
s54 116.666 54 171.999c0 66 -25.5 120.667 -76.5 164s-129.833 66.333 -236.5 69h-176zM512.001 784.001l176 0.000976562c73.333 0 139.333 17 198 51s104.667 77.167 138 129.5s50 104.166 50 155.499c0 56.667 -20.833 103 -62.5 139s-104.5 54 -188.5 54
c-16.667 0 -29.667 -0.333008 -39 -1h-176z" />
    <glyph glyph-name="C" unicode="C" horiz-adv-x="1360" 
d="M208 576c4 98 24.666 195.499 61.999 292.499s93.333 187 168 270s170.667 150.333 288 202s254 79.5 410 83.5c84 0 162.667 -10.167 236 -30.5s133.333 -42.166 180 -65.499l-64 -160l-32 -16c-30.667 50.667 -65.167 88.667 -103.5 114s-80.666 42 -126.999 50
s-102.833 12 -169.5 12c-50 0 -108.5 -13.167 -175.5 -39.5s-134.5 -69.5 -202.5 -129.5s-127.5 -140.167 -178.5 -240.5s-84.167 -219.833 -99.5 -358.5c-0.666992 -8 -1 -20.333 -1 -37c0 -86.667 17.167 -165 51.5 -235s84.166 -126.333 149.499 -169
s142.666 -66.334 231.999 -71.001c156.667 0 311.334 53.333 464.001 160l-16 -128c-50.667 -30.667 -103.5 -55.5 -158.5 -74.5s-110.167 -32.667 -165.5 -41s-107.333 -12.5 -156 -12.5c-104.667 0 -201.167 16 -289.5 48s-161.166 89.333 -218.499 172
s-86 195.334 -86 338.001c0 13.333 0.666992 35.333 2 66z" />
    <glyph glyph-name="D" unicode="D" horiz-adv-x="1584" 
d="M192 0l288 1408h576c164 0 289 -19.333 375 -58s144.167 -90.667 174.5 -156s45.5 -145 45.5 -239c0 -29.333 -1 -59.666 -3 -90.999c-6.66699 -109.333 -31.667 -216.333 -75 -321s-103.333 -197.834 -180 -279.501s-169.5 -146 -278.5 -193
s-230.167 -70.5 -363.5 -70.5h-31h-528zM416 112c89.333 -16.667 173.667 -25 253 -25c121.333 0 228.5 19 321.5 57s171.167 91.5 234.5 160.5s112.333 148.333 147 238s57.334 186.167 68.001 289.5c2.66699 28.667 4 58.667 4 90c0 119.333 -23.833 208.5 -71.5 267.5
s-111.834 97 -192.501 114s-187.667 25.5 -321 25.5c-44 0 -80.167 -0.166992 -108.5 -0.5s-59.833 -0.5 -94.5 -0.5z" />
    <glyph glyph-name="E" unicode="E" horiz-adv-x="1024" 
d="M176 0l272 1392h720c-10.667 -32 -16 -80 -16 -144c-34.667 14 -115.334 25.5 -242.001 34.5s-222 13.5 -286 13.5l-112 -496h352c64 0 112 5.33301 144 16c-10.667 -42.667 -16 -90.667 -16 -144c-64 10.667 -229.333 16 -496 16l-112 -592
c52.667 0 114.834 1.66699 186.501 5s131.167 6.66602 178.5 9.99902s112.333 9 195 17c-21.333 -64 -32 -106.667 -32 -128h-736z" />
    <glyph glyph-name="F" unicode="F" horiz-adv-x="1024" 
d="M176 0l271.997 1392h720c-10.667 -32 -16 -80 -16 -144c-51.333 10.667 -103.166 18 -155.499 22s-106.5 6.66699 -162.5 8s-131.333 2 -226 2l-96 -480h288c22.667 0 59.334 2.66699 110.001 8s83.334 8 98.001 8c-10.667 -32 -16 -74.667 -16 -128
c-28.667 7.33301 -60.5 11.833 -95.5 13.5s-83.167 2.5 -144.5 2.5h-256l-128 -704c-40 8 -72 12 -96 12s-56 -4 -96 -12z" />
    <glyph glyph-name="G" unicode="G" horiz-adv-x="1584" 
d="M240 592c15.333 149.333 51.834 278.831 109.501 388.498s129.5 198.334 215.5 266.001s179 116.834 279 147.501s202.667 46 308 46c74 0 166.167 -9.83301 276.5 -29.5s194.166 -47.167 251.499 -82.5l-80 -176h-32c-39.333 62.667 -96.666 110.334 -171.999 143.001
s-162 49 -260 49c-71.333 0 -142.833 -11.167 -214.5 -33.5s-141 -61.5 -208 -117.5s-124.167 -132.333 -171.5 -229s-78.666 -215.334 -93.999 -356.001c-3.33301 -30 -5 -56.667 -5 -80c0 -84.667 16.167 -162.167 48.5 -232.5s82.333 -126.5 150 -168.5
s152.5 -63 254.5 -63c174 0 296.667 21.333 368 64l96 528c40 -8 74 -12 102 -12s58 4 90 12l-112 -592c-64 -24.667 -128.833 -44.167 -194.5 -58.5s-131.334 -24.166 -197.001 -29.499s-132.5 -8 -200.5 -8c-84 0 -162 10 -234 30s-136.333 52 -193 96
s-101.334 102.167 -134.001 174.5s-49 158.166 -49 257.499c0 28.667 0.666992 50.667 2 66z" />
    <glyph glyph-name="H" unicode="H" horiz-adv-x="1584" 
d="M160 0l272 1408c32 -8 64 -12 96 -12s64 4 96 12l-112 -576c144 -8 285.333 -12 424 -12s280 4 424 12l112 576c32 -8 64 -12 96 -12s64 4 96 12l-272 -1408c-32 8 -62 12 -90 12s-62 -4 -102 -12l128 704c-144 8 -285.333 12 -424 12s-280 -4 -424 -12l-128 -704
c-32 8 -62 12 -90 12s-62 -4 -102 -12z" />
    <glyph glyph-name="I" unicode="I" horiz-adv-x="560" 
d="M192 0l272 1408c24 -8 54 -12 90 -12s70 4 102 12l-272 -1408c-32 8 -64 12 -96 12s-64 -4 -96 -12z" />
    <glyph glyph-name="J" unicode="J" horiz-adv-x="560" 
d="M272 240l239.996 1152c40 -8 71.333 -12 94 -12s50 4 82 12l-224 -1184c-13.333 -86 -39.166 -160.833 -77.499 -224.5s-82.666 -114.667 -132.999 -153s-100.833 -66 -151.5 -83s-95.334 -25.5 -134.001 -25.5c-18.667 0 -34.667 2 -48 6v48
c70.667 4 128.334 23 173.001 57s78.334 75.333 101.001 124s39.334 98.334 50.001 149.001z" />
    <glyph glyph-name="K" unicode="K" horiz-adv-x="1248" 
d="M352 0c-32 8 -63.998 12.001 -95.998 12.001s-64 -4 -96 -12l288 1392c32 -8 64 -12 96 -12s64 4 96 12l-128 -640c31.333 20 85.166 60.167 161.499 120.5l246.5 200.5l237.5 203.5c70.333 62.333 111.166 100.833 122.499 115.5c32 -8 64 -12 96 -12s64 4 96 12
l-784 -624l512 -736v-32c-40 8 -80 12 -120 12s-80 -4 -120 -12c-3.33301 22 -19 57.167 -47 105.5s-62.5 103.666 -103.5 165.999l-150 227c-59 89 -102.833 157.5 -131.5 205.5h-32z" />
    <glyph glyph-name="L" unicode="L" horiz-adv-x="1024" 
d="M176 0l255.999 1392c40 -8 72 -12 96 -12s56 4 96 12l-240 -1280c50.667 0 119.167 1.66699 205.5 5s160.833 7.16602 223.5 11.499s106.334 9.5 131.001 15.5c-21.333 -64 -32 -112 -32 -144h-736z" />
    <glyph glyph-name="M" unicode="M" horiz-adv-x="1808" 
d="M80 0l480.001 1392h48l104 -298.5l118 -347l85 -243.5c25.333 -70 45.666 -120.333 60.999 -151l784 1040h48l-96 -1392c-40 8 -76.667 12 -110 12s-66 -4 -98 -12l112 1040c-226 -282.667 -466 -618.667 -720 -1008h-32l-320 1008c-18 -66 -43.5 -152.333 -76.5 -259
l-87 -280l-72 -239.5c-23 -79.667 -45.833 -166.834 -68.5 -261.501c-16 8 -36.667 12 -62 12s-58 -4 -98 -12z" />
    <glyph glyph-name="N" unicode="N" horiz-adv-x="1584" 
d="M192 0l288 1392h96l768 -1056l192 1056c24 -8 45.333 -12 64 -12s40 4 64 12l-272 -1392h-64l-784 1088l-208 -1088c-24 8 -48 12 -72 12s-48 -4 -72 -12z" />
    <glyph glyph-name="O" unicode="O" horiz-adv-x="1696" 
d="M208 640c16.667 89.333 48.998 178.831 96.998 268.498s112 172.5 192 248.5s176.5 136.833 289.5 182.5s240.167 68.5 381.5 68.5c114 0 217.667 -23.167 311 -69.5s167 -113 221 -200s81 -187.167 81 -300.5c0 -33.333 -1.66699 -62 -5 -86
c-19.333 -126 -55.666 -238.667 -108.999 -338s-121.166 -183.666 -203.499 -252.999s-175.5 -121.5 -279.5 -156.5s-216 -52.5 -336 -52.5c-150 0 -273.5 24.667 -370.5 74s-167.5 116.833 -211.5 202.5s-66 182.834 -66 291.501c0 36 2.66699 76 8 120zM1552 687.998
c19.333 68.667 29.001 133.005 29.001 193.005c0 97.333 -23 179.666 -69 246.999s-103.333 117.5 -172 150.5s-136.667 49.5 -204 49.5c-130 0 -240.5 -28.833 -331.5 -86.5s-164 -131.334 -219 -221.001s-100.833 -189.834 -137.5 -300.501
c-20 -70.667 -30 -143.334 -30 -218.001c0 -82.667 13.667 -159.167 41 -229.5s74.166 -128 140.499 -173s154.5 -67.5 264.5 -67.5c112 0 209.833 22.667 293.5 68s152 102.666 205 171.999s94 139.5 123 210.5s51.167 139.5 66.5 205.5z" />
    <glyph glyph-name="P" unicode="P" 
d="M160 0l272.001 1392h416c90 0 165.5 -4.33301 226.5 -13s114 -32.834 159 -72.501s67.5 -99.834 67.5 -180.501c0 -26 -1.66699 -49.333 -5 -70c-12 -80.667 -43.833 -149 -95.5 -205s-113.834 -100 -186.501 -132s-146.167 -54.667 -220.5 -68s-143.5 -20 -207.5 -20
c-48.667 0 -84 3 -106 9l-128 -640c-32 8 -64 12 -96 12s-64 -4 -96 -12zM496.001 736.002c49.333 -8.66699 96 -13.002 140 -13.002c106.667 0 194 21.833 262 65.5s116.667 93.834 146 150.501s44 106.334 44 149.001c0 71.333 -20.5 124.5 -61.5 159.5
s-105.833 56.5 -194.5 64.5h-224z" />
    <glyph glyph-name="Q" unicode="Q" horiz-adv-x="1696" 
d="M192 608c15.333 134.667 52.6689 253.833 112.002 357.5s133.166 189.5 221.499 257.5s183.666 118.5 285.999 151.5s205.166 49.5 308.499 49.5c90.667 0 183.167 -14.333 277.5 -43s176.666 -85 246.999 -169s105.5 -201.667 105.5 -353c0 -33.333 -2 -69 -6 -107
c-4 -59.333 -21.667 -126.333 -53 -201s-75.5 -148.667 -132.5 -222s-126.833 -138.166 -209.5 -194.499s-175 -95.833 -277 -118.5l384 -336c-10.667 -5.33301 -30.334 -14 -59.001 -26s-54.167 -23.667 -76.5 -35s-41.166 -23 -56.499 -35
c-22.667 34 -47.167 66.833 -73.5 98.5s-56.666 65.167 -90.999 100.5l-106 105.5l-81.5 79.5c-169.333 0 -307.666 22.667 -414.999 68s-185.5 109.5 -234.5 192.5s-73.5 183.167 -73.5 300.5c0 25.333 1 51.666 3 78.999zM1520 687.999
c17.333 76.667 25.9951 146.665 25.9951 209.998c0 69.333 -9.83301 131.833 -29.5 187.5s-48 102.5 -85 140.5s-83 67.333 -138 88s-118.167 31 -189.5 31c-7.33301 0 -13.166 -0.166992 -17.499 -0.5s-9.16602 -0.5 -14.499 -0.5c-83.333 0 -161.166 -18.667 -233.499 -56
s-136.166 -86.833 -191.499 -148.5s-102.333 -128.667 -141 -201s-68.667 -145.166 -90 -218.499c-16 -64 -24 -128.667 -24 -194c0 -88 15.333 -168.167 46 -240.5s78 -130 142 -173s142.667 -64.5 236 -64.5c92.667 0 186.334 21.333 281.001 64
s180.167 111.834 256.5 207.501s131.833 218.5 166.5 368.5z" />
    <glyph glyph-name="R" unicode="R" horiz-adv-x="1248" 
d="M176 0l272 1392h464c80 0 145.5 -6 196.5 -18s91.167 -36.667 120.5 -74s46.333 -92 51 -164c0.666992 -4.66699 1 -12 1 -22c0 -62.667 -20.5 -125.167 -61.5 -187.5s-99.5 -115.333 -175.5 -159s-162.667 -70.167 -260 -79.5l416 -688c-56 8 -98 12 -126 12
s-66 -4 -114 -12l-143.5 259.5l-129 215.5l-127.5 197h-64l-128 -672c-10 0 -22.5 0.666992 -37.5 2s-30.167 2.5 -45.5 3.5s-28 1.5 -38 1.5c-22 0 -45.667 -2.33301 -71 -7zM512 768c27.333 -8.66699 60.668 -12.9971 100.001 -12.9971c50 0 102.167 6.66699 156.5 20
s106.166 34.166 155.499 62.499s89 64.666 119 108.999s45 96.833 45 157.5c-4 57.333 -17.167 100.333 -39.5 129s-51.666 47.5 -87.999 56.5s-94.833 14.667 -175.5 17s-134.334 4.16602 -161.001 5.49902z" />
    <glyph glyph-name="S" unicode="S" horiz-adv-x="1024" 
d="M320 944c4.66699 105.333 33.334 192.999 86.001 262.999s119.334 121 200.001 153s166.667 48 258 48c51.333 0 101.166 -8.33301 149.499 -25s83.833 -40.334 106.5 -71.001c-32 -64 -58.667 -122.667 -80 -176h-32c-14 62.667 -39.667 109.167 -77 139.5
s-80.333 45.5 -129 45.5c-45.333 0 -91.5 -12.833 -138.5 -38.5s-86 -60 -117 -103s-47.833 -89.5 -50.5 -139.5c0 -54 20.333 -97.667 61 -131s102.5 -70 185.5 -110s146.167 -76.667 189.5 -110s68.666 -76.333 75.999 -129c1.33301 -12 2 -23.667 2 -35
c0 -46 -8.33301 -99.833 -25 -161.5s-46.167 -122.667 -88.5 -183s-102 -110.833 -179 -151.5s-172.167 -61 -285.5 -61c-49.333 0 -92.166 3.5 -128.499 10.5s-65.333 15.5 -87 25.5s-40.334 21 -56.001 33s-31.834 26.333 -48.501 43l80 192h32
c6 -38 21.833 -72.667 47.5 -104s58 -56.333 97 -75s80.167 -28 123.5 -28c47.333 0 93.333 11.5 138 34.5s85.334 59.167 122.001 108.5c22.667 31.333 40 63 52 95s18 63.333 18 94c0 66 -28.667 120.333 -86 163c-42 30 -97.167 61.167 -165.5 93.5
s-117 56.833 -146 73.5s-53.667 41.834 -74 75.501s-30.5 80.834 -30.5 141.501z" />
    <glyph glyph-name="T" unicode="T" 
d="M464 0l255.998 1296c-43.333 0 -87.666 -0.666992 -132.999 -2s-95.666 -4.16602 -150.999 -8.49902s-110 -11.5 -164 -21.5c21.333 21.333 32 69.333 32 144h1056c-15.333 -47.333 -23 -81.333 -23 -102c0 -14.667 2.33301 -28.667 7 -42
c-106.667 21.333 -250.667 32 -432 32l-256 -1296c-32 8 -62 12 -90 12s-62 -4 -102 -12z" />
    <glyph glyph-name="U" unicode="U" horiz-adv-x="1584" 
d="M288 528l160 880.003c32 -8 63.333 -12 94 -12s58 4 82 12l-160 -912c-4 -26.667 -6 -53.334 -6 -80.001c0 -46 6.5 -89.333 19.5 -130s33.667 -77.334 62 -110.001s64.166 -58.5 107.499 -77.5s94.333 -30.5 153 -34.5c8 -0.666992 20 -1 36 -1
c88 0 168.167 19.667 240.5 59s134.333 101 186 185s89.5 189.667 113.5 317l144 784c24 -8 45.333 -12 64 -12s40 4 64 12l-144 -768c-23.333 -127.333 -58.5 -234.833 -105.5 -322.5s-102.833 -156.834 -167.5 -207.501s-135.5 -87 -212.5 -109s-160.5 -33 -250.5 -33
c-128 4 -229.167 22.5 -303.5 55.5s-125.666 76.167 -153.999 129.5s-42.5 116.333 -42.5 189c0 47.333 6.66699 109.333 20 186z" />
    <glyph glyph-name="V" unicode="V" horiz-adv-x="1360" 
d="M656 0l-335.999 1408c40 -8 74 -12 102 -12s58 4 90 12l240 -1168c15.333 11.333 49.666 57.5 102.999 138.5l194 308.5l224.5 375.5l198.5 345.5c24 -8 48 -12 72 -12s48 4 72 12l-221.5 -359l-225.5 -359l-209 -338l-208 -352c-16 8 -32 12 -48 12s-32 -4 -48 -12z" />
    <glyph glyph-name="W" unicode="W" horiz-adv-x="2032" 
d="M608 224l623.999 1168c24 -8 45.333 -12 64 -12s40 4 64 12c0 -16 2.66699 -42.667 8 -80s8 -64 8 -80l144 -1008l304 592c96 176 192 368 288 576c24 -8 50.667 -12 80 -12s56 4 80 12l-114 -192.5l-121.5 -198.5l-97 -165.5
c-30.333 -54.333 -58.166 -108.833 -83.499 -163.5l-352 -672c-24 8 -48 12 -72 12s-48 -4 -72 -12l-144 1168l-608 -1168c-24 8 -48 12 -72 12s-48 -4 -72 -12l-176 1392c24 -8 56 -12 96 -12s72 4 96 12z" />
    <glyph glyph-name="X" unicode="X" horiz-adv-x="1248" 
d="M352 1392c24 -8 64 -12.002 120 -12.002s96 4 120 12l208 -528l208 240c4 8 39.333 52 106 132s106 132 118 156c24 -8 53.333 -12 88 -12s64 4 88 12l-576 -624l320 -768c-24 8 -61.333 12 -112 12s-88 -4 -112 -12c-15.333 52.667 -38.333 122.834 -69 210.501
s-50.334 140.167 -59.001 157.5l-96 240l-480 -608c-24 8 -53.333 12 -88 12s-64 -4 -88 -12c22.667 22.667 52.667 54.834 90 96.501l120 136.5l118 135.5c36 41 60 67.5 72 79.5l208 256l-160 416c-13.333 40 -33.666 83.5 -60.999 130.5z" />
    <glyph glyph-name="Y" unicode="Y" horiz-adv-x="1248" 
d="M640 560l-335.999 832.001c24 -8 64 -12 120 -12s96 4 120 12c16 -73.333 35.667 -144.833 59 -214.5s49.666 -141.167 78.999 -214.5l102 -243c16 11.333 52.667 54.333 110 129l179 238.5c62 84.333 104.333 143.166 127 176.499l96 128c24 -8 50.667 -12 80 -12
s56 4 80 12l-624 -752l-112 -640c-24 8 -56 12 -96 12s-72 -4 -96 -12z" />
    <glyph glyph-name="Z" unicode="Z" horiz-adv-x="1248" 
d="M48 64l279.5 318.002l314.5 347l262.5 292.5l247.5 290.5c-46 0 -98.833 -1.33301 -158.5 -4s-138.167 -7.33398 -235.5 -14.001s-173.5 -12.167 -228.5 -16.5l-177.5 -13.5c21.333 42.667 32 85.334 32 128.001h1072l-16 -64l-644 -680.5
c-166.667 -181 -325.334 -364.833 -476.001 -551.5c44.667 2.66699 108.5 5.66699 191.5 9l214 8.5c59.667 2.33301 138.834 6.16602 237.501 11.499s183 11.666 253 18.999c-21.333 -64 -32 -112 -32 -144h-1152z" />
    <glyph glyph-name="bracketleft" unicode="[" horiz-adv-x="672" 
d="M480 1472h320l-16 -64h-192l-320 -1632h208l-16 -64h-320l192 1024z" />
    <glyph glyph-name="backslash" unicode="\" horiz-adv-x="1024" 
d="M832 0l-480 1520c24 -8 48 -12 72 -12s48 4 72 12l480 -1520c-24 8 -48 12 -72 12s-48 -4 -72 -12z" />
    <glyph glyph-name="bracketright" unicode="]" horiz-adv-x="672" 
d="M352 -240h-320l16 64h192l320 1632h-208l16 64h320z" />
    <glyph glyph-name="asciicircum" unicode="^" horiz-adv-x="1232" 
d="M208 560l592 816h144l288 -816h-160l-224 640l-480 -640h-160z" />
    <glyph glyph-name="underscore" unicode="_" horiz-adv-x="1024" 
d="M-48 -240h1008l-16 -80h-1008z" />
    <glyph glyph-name="grave" unicode="`" horiz-adv-x="672" 
d="M320 1312c-15.333 15.333 -23 33 -23 53c0 20.667 8.66699 39.667 26 57s38 26 62 26c40.667 0 77.667 -24 111 -72l208 -272h-80z" />
    <glyph glyph-name="a" unicode="a" horiz-adv-x="1024" 
d="M128 192c7.33301 71.333 28.667 128.333 64 171s78.833 74.334 130.5 95.001s107.167 35.667 166.5 45s115 17.666 167 24.999c54 4 95.167 22.167 123.5 54.5s42.5 70.5 42.5 114.5c0 48.667 -16.167 91.334 -48.5 128.001s-76.833 55 -133.5 55
c-47.333 0 -95.333 -11.167 -144 -33.5s-91.334 -59.166 -128.001 -110.499h-32l16 112c56.667 40.667 115.667 72.167 177 94.5s119.666 33.5 174.999 33.5c48 0 94 -8.83301 138 -26.5s79.5 -45.167 106.5 -82.5s40.5 -84.666 40.5 -141.999
c0 -32 -4.33301 -65.667 -13 -101l-96 -448c-2.66699 -18.667 -4 -36.334 -4 -53.001s2 -29.334 6 -38.001s10.167 -14.5 18.5 -17.5s19.5 -4.5 33.5 -4.5c6.66699 0 12.834 0.166992 18.501 0.5s13.5 0.5 23.5 0.5l-16 -48c-42.667 -19.333 -83 -29 -121 -29
c-40 0 -72.5 11.333 -97.5 34s-37.5 53 -37.5 91c-37.333 -52.667 -85.666 -89.834 -144.999 -111.501s-128.333 -32.5 -207 -32.5c-64 0 -117.333 21.333 -160 64s-64 96 -64 160zM720.001 224l48.002 256.005c-6 -2 -42.333 -8.83301 -109 -20.5
s-125.334 -26.834 -176.001 -45.501s-93.167 -47.334 -127.5 -86.001s-51.5 -89.334 -51.5 -152.001c0 -20.667 7.16699 -39.834 21.5 -57.501s33.5 -31.5 57.5 -41.5s51 -15 81 -15c46.667 0 92.667 13.167 138 39.5s84.666 67.166 117.999 122.499z" />
    <glyph glyph-name="b" unicode="b" 
d="M432 1536c32 -8 61.335 -12.001 88.002 -12.001s56 4 88 12l-144 -736c53.333 60.667 115.666 107.834 186.999 141.501s137 50.5 197 50.5c73.333 -2 135.166 -19.5 185.499 -52.5s87.166 -76.833 110.499 -131.5s35 -115.334 35 -182.001
c0 -72.667 -13.167 -147.167 -39.5 -223.5s-64.333 -147.166 -114 -212.499s-108.667 -118 -177 -158s-143.166 -61.333 -224.499 -64c-122.667 0 -224 48 -304 144l-144 -112h-48zM976.002 495.999c8.66699 46.667 13 91 13 133c0 78 -15.833 142 -47.5 192
s-84.167 75 -157.5 75c-63.333 0 -121.166 -18 -173.499 -54s-97.833 -86.5 -136.5 -151.5s-68.667 -140.5 -90 -226.5c-13.333 -58.667 -20 -109.667 -20 -153c0 -85.333 21.5 -150.5 64.5 -195.5s102.833 -67.5 179.5 -67.5c63.333 0 122 25.5 176 76.5
s98.167 112.833 132.5 185.5s54.166 134.667 59.499 186z" />
    <glyph glyph-name="c" unicode="c" horiz-adv-x="1024" 
d="M160 384c5.33301 101.333 32.1729 198.664 80.5059 291.997s119.666 169.333 213.999 228s209.5 88 345.5 88c29.333 0 64.666 -3.5 105.999 -10.5s79.666 -16.5 114.999 -28.5s63 -25.667 83 -41l-80 -160h-16c-10.667 36.667 -27.334 66.834 -50.001 90.501
s-48.834 41.167 -78.501 52.5s-61.5 17 -95.5 17c-84.667 -2.66699 -160 -30.5 -226 -83.5s-116.667 -120.167 -152 -201.5s-53 -162.333 -53 -243c0 -45.333 5.5 -87.166 16.5 -125.499s27.5 -72.666 49.5 -102.999s50.5 -54.833 85.5 -73.5s74.833 -30 119.5 -34
c48 0 103.333 14 166 42s114 62 154 102l16 -16l-32 -96c-88.667 -71.333 -201.334 -107 -338.001 -107c-76.667 0 -147.667 13.5 -213 40.5s-118 68.833 -158 125.5s-60 126 -60 208c0 16 0.333008 28.333 1 37z" />
    <glyph glyph-name="d" unicode="d" 
d="M128 416c20 131.333 58.998 241.833 116.998 331.5s126.5 155.5 205.5 197.5s163.5 63 253.5 63c122.667 0 213.334 -58.667 272.001 -176l128 720c32 -8 61.333 -12 88 -12s56 4 88 12l-288 -1552c-32 8 -61.333 12 -88 12s-56 -4 -88 -12l32 192
c-54 -77.333 -110.667 -131.333 -170 -162s-130.666 -46 -213.999 -46c-67.333 0 -126.333 14.667 -177 44s-90 73 -118 131s-42 129.333 -42 214c0 18.667 0.333008 33 1 43zM911.998 496c12.667 52.667 19 101.997 19 147.997c0 84 -18.833 149.667 -56.5 197
s-83.834 71 -138.501 71c-81.333 0 -150 -24.667 -206 -74s-98.167 -105.166 -126.5 -167.499s-50.833 -125.833 -67.5 -190.5c-8.66699 -45.333 -13 -89.666 -13 -132.999c0 -81.333 17.167 -148.833 51.5 -202.5s90.833 -80.5 169.5 -80.5
c72.667 0 142.334 38.333 209.001 115s119.667 182.334 159 317.001z" />
    <glyph glyph-name="e" unicode="e" horiz-adv-x="1024" 
d="M160 352c0 123.333 24.999 232.667 74.999 328s116.333 168.5 199 219.5s172.667 76.5 270 76.5c63.333 0 117.5 -7.66699 162.5 -23s81.5 -37.333 109.5 -66s49 -63.667 63 -105s21 -88.666 21 -141.999c0 -52.667 -6.66699 -111.334 -20 -176.001
c-2 0 -37.667 1.5 -107 4.5s-154.5 5.66699 -255.5 8s-209.5 3.5 -325.5 3.5c-12.667 -44 -19 -88 -19 -132c0 -82.667 23.167 -150.834 69.5 -204.501s111.5 -80.5 195.5 -80.5c11.333 0 20 0.333008 26 1c47.333 4.66699 90.5 14.167 129.5 28.5s70.5 29.333 94.5 45
s56 39.167 96 70.5l-16 -112c-34.667 -30 -74.5 -54.667 -119.5 -74s-90.667 -33.166 -137 -41.499s-88.833 -12.5 -127.5 -12.5c-55.333 0 -106.166 6.33301 -152.499 19s-86.5 33 -120.5 61s-61 67.167 -81 117.5s-30 112.5 -30 186.5zM879.999 560.001
c15.333 34.667 23 77.3311 23 127.998c0 61.333 -13.667 114 -41 158s-69.333 66 -126 66c-71.333 0 -133.833 -22.667 -187.5 -68s-95.167 -95.666 -124.5 -150.999s-48 -99.666 -56 -132.999h512z" />
    <glyph glyph-name="f" unicode="f" horiz-adv-x="560" 
d="M384 992c11.333 43.333 27.501 90.501 48.501 141.501s44 99.667 69 146s44.5 78.5 58.5 96.5c38 46.667 84.667 88.5 140 125.5s114.333 55.5 177 55.5c15.333 0 32.333 -1.66699 51 -5c-32 -64 -48 -117.333 -48 -160l-32 -16c-30.667 14.667 -61.334 22 -92.001 22
c-26 0 -50.333 -4.5 -73 -13.5s-43.5 -22.5 -62.5 -40.5s-33.833 -39.333 -44.5 -64c-22 -51.333 -35.5 -95.5 -40.5 -132.5s-7.5 -88.833 -7.5 -155.5h224c-21.333 -42.667 -32 -74.667 -32 -96h-192l-176 -896c-24 8 -51.333 12 -82 12s-62 -4 -94 -12l176 896h-144
c5.33301 5.33301 10.5 15.666 15.5 30.999s7.5 29 7.5 41c0 11.333 -2.33301 19.333 -7 24h160z" />
    <glyph glyph-name="g" unicode="g" horiz-adv-x="1024" 
d="M368 384c-45.333 7.33301 -80.665 30.998 -105.998 70.998s-38 85.667 -38 137c0 76 17.667 144.333 53 205s83.833 108.5 145.5 143.5s129.5 52.5 203.5 52.5c13.333 0 23.333 -0.333008 30 -1c7.33301 0 29.5 -0.5 66.5 -1.5s84.667 -2.16699 143 -3.5
s102.833 -2 133.5 -2c72 0 123 2.33301 153 7l-16 -96l-224 32c42 -34.667 68.5 -71.334 79.5 -110.001s16.5 -82 16.5 -130c-6.66699 -61.333 -23.334 -114.5 -50.001 -159.5s-61.667 -82 -105 -111s-92.166 -50.167 -146.499 -63.5s-115.166 -20 -182.499 -20
c-13.333 0 -33.333 0.666992 -60 2c-32 0 -57.667 -5.16699 -77 -15.5s-33.5 -23.666 -42.5 -39.999s-13.5 -33.166 -13.5 -50.499c0 -19.333 4.83301 -35.833 14.5 -49.5s22.5 -20.5 38.5 -20.5c74.667 -5.33301 132 -8 172 -8s94.667 -2.66699 164 -8
c152 -12 228 -81.333 228 -208c0 -10.667 -1.33301 -26.667 -4 -48c-4.66699 -37.333 -18.334 -80 -41.001 -128s-56.334 -95.5 -101.001 -142.5s-102 -85.667 -172 -116s-152 -45.5 -246 -45.5c-89.333 0 -175.666 16.833 -258.999 50.5s-125 102.167 -125 205.5
c0 72.667 24.167 136.167 72.5 190.5s120.166 97.5 215.499 129.5c-26 0 -51.167 9.16699 -75.5 27.5s-36.5 51.833 -36.5 100.5c0 55.333 18.667 99.833 56 133.5s82.666 63.834 135.999 90.501zM832.001 671.998c6 27.333 8.99805 56.333 8.99805 87
c0 48 -11.167 88.167 -33.5 120.5s-62.166 48.5 -119.499 48.5c-160 0 -261.333 -96 -304 -288c-4 -18.667 -6 -37 -6 -55c0 -55.333 17.833 -100 53.5 -134s78.5 -51 128.5 -51c53.333 0 99.833 14 139.5 42s70.334 63.333 92.001 106s35.167 84 40.5 124z
M735.999 -304.002c26 52 38.9961 100.667 38.9961 146c0 34.667 -8 65 -24 91s-41.167 46.333 -75.5 61s-78.166 22 -131.499 22c-103.333 0 -194.166 -21.5 -272.499 -64.5s-117.5 -116.5 -117.5 -220.5c0 -20.667 2 -43 6 -67c8 -44 33.167 -77.5 75.5 -100.5
s93.833 -34.5 154.5 -34.5c68.667 0 135.334 14.667 200.001 44s113.334 70.333 146.001 123z" />
    <glyph glyph-name="h" unicode="h" 
d="M144 0l304 1568c32 -8 61.333 -12 88 -12s56 4 88 12l-144 -752c34 49.333 72.167 88.5 114.5 117.5s85 48.667 128 59s84.833 15.5 125.5 15.5c175.333 0 263 -91 263 -273c0 -31.333 -2.33301 -63 -7 -95l-128 -640c-24 8 -51.333 12 -82 12s-62 -4 -94 -12l128 608
c5.33301 22 8 46.333 8 73c0 36.667 -6.16699 70.167 -18.5 100.5s-30.166 54.333 -53.499 72s-50 26.5 -80 26.5c-10 1.33301 -25 2 -45 2c-48.667 0 -92.334 -9.33301 -131.001 -28s-73 -49.667 -103 -93s-54.333 -99.666 -73 -168.999l-112 -592c-32 8 -61.333 12 -88 12
s-56 -4 -88 -12z" />
    <glyph glyph-name="i" unicode="i" horiz-adv-x="560" 
d="M432 1328c7.33301 42.667 22.499 75 45.499 97s47.833 33 74.5 33c24.667 0 45.5 -8.5 62.5 -25.5s25.5 -41.167 25.5 -72.5c-3.33301 -36.667 -18.666 -66.667 -45.999 -90s-56.333 -35 -87 -35c-50 0 -75 31 -75 93zM191.999 0l176 992c32 -8 61.333 -12 88 -12
s56 4 88 12l-176 -992c-32 8 -61.333 12 -88 12s-56 -4 -88 -12z" />
    <glyph glyph-name="j" unicode="j" horiz-adv-x="560" 
d="M208 0l175.999 976c24 -8 53.333 -12 88 -12s64 4 88 12l-176 -960c-20 -126.667 -53.833 -230.5 -101.5 -311.5s-103.167 -140 -166.5 -177s-128.666 -55.5 -195.999 -55.5l-16 64c52 0 99 23.167 141 69.5s77 105.833 105 178.5s47.333 144.667 58 216zM431.999 1312
c0 24.667 6.66699 46.501 20 65.501s30.666 33.667 51.999 44s43 15.5 65 15.5c26 0 47 -7.5 63 -22.5s24 -38.5 24 -70.5c0 -40.667 -12.667 -72.667 -38 -96s-54.333 -35 -87 -35c-27.333 0 -50.666 8.66699 -69.999 26s-29 41.666 -29 72.999z" />
    <glyph glyph-name="k" unicode="k" horiz-adv-x="1024" 
d="M160 0l304 1568c32 -8 61.333 -12 88 -12s56 4 88 12l-192 -992c2.66699 -11.333 10.334 -17 23.001 -17c28.667 0 74.167 27.167 136.5 81.5s136.166 124 221.499 209s134.333 132.5 147 142.5c24 -8 50.667 -12 80 -12s56 4 80 12v-32l-512 -400l368 -528v-32
c-40 8 -74.667 12 -104 12s-64 -4 -104 -12l-240 368c-47.333 75.333 -78 113 -92 113c-10.667 0 -22.667 -16.333 -36 -49l-80 -432c-24 8 -51.333 12 -82 12s-62 -4 -94 -12z" />
    <glyph glyph-name="l" unicode="l" horiz-adv-x="560" 
d="M208 0l304 1552c32 -8 61.333 -12 88 -12s56 4 88 12l-304 -1552c-24 8 -51.333 12 -82 12s-62 -4 -94 -12z" />
    <glyph glyph-name="m" unicode="m" horiz-adv-x="1696" 
d="M144 0l192.002 992.001c24 -8 51.333 -12 82 -12s62 4 94 12l-32 -160l76 79c27.333 28 61.666 51.167 102.999 69.5s93.666 27.5 156.999 27.5c50.667 0 95.5 -10.333 134.5 -31s69 -47 90 -79s31.5 -64.667 31.5 -98c50.667 68 105.5 119.667 164.5 155
s126.833 53 203.5 53c66.667 -4 118.667 -17.167 156 -39.5s63.5 -52.166 78.5 -89.499s22.5 -79 22.5 -125c0 -40 -5.66699 -94 -17 -162l-112 -592c-24 8 -51.333 12 -82 12s-62 -4 -94 -12l112 576c10.667 53.333 16 96.666 16 129.999c0 116 -53.333 174 -160 174
c-67.333 0 -129.333 -23.333 -186 -70s-96 -124.667 -118 -234l-112 -576c-24 8 -51.333 12 -82 12s-62 -4 -94 -12l112 544c10.667 71.333 16 124.666 16 159.999c0 59.333 -13 103.5 -39 132.5s-71.667 43.5 -137 43.5c-42 0 -80.667 -6.5 -116 -19.5s-68 -40 -98 -81
s-54.667 -98.167 -74 -171.5l-112 -608c-32 8 -61.333 12 -88 12s-56 -4 -88 -12z" />
    <glyph glyph-name="n" unicode="n" 
d="M144 0l192.001 992c32 -8 64 -12 96 -12s64 4 96 12l-32 -160c82 117.333 204.667 176 368 176c55.333 0 102.333 -9 141 -27s68.167 -45.333 88.5 -82s30.5 -83.667 30.5 -141c0 -42.667 -6.66699 -92.667 -20 -150l-112 -608c-24 8 -54 12 -90 12s-70 -4 -102 -12
l128 656c4 22.667 6 43.667 6 63c0 60 -16 105 -48 135s-73 45 -123 45c-66.667 0 -130.834 -24.667 -192.501 -74s-102.5 -116.333 -122.5 -201l-128 -624c-24 8 -51.333 12 -82 12s-62 -4 -94 -12z" />
    <glyph glyph-name="o" unicode="o" 
d="M160 480c16.667 70.667 42.1689 137.503 76.502 200.503s77.166 119.167 128.499 168.5s111.166 88.166 179.499 116.499s142.833 42.5 223.5 42.5c136 0 237.5 -36.333 304.5 -109s100.5 -165.334 100.5 -278.001c0 -22.667 -1.66699 -48.334 -5 -77.001
c-20 -150 -81.333 -283.5 -184 -400.5s-254.667 -175.5 -456 -175.5c-56.667 0 -114.5 14 -173.5 42s-108.5 71 -148.5 129s-60 129.667 -60 215c0 42 4.66699 84 14 126zM976.002 560.003c2.66699 40 4 68.668 4 86.001c0 89.333 -15.833 158.666 -47.5 207.999
s-86.5 74 -164.5 74c-118.667 0 -208.334 -43.667 -269.001 -131s-109.667 -193 -147 -317c-14.667 -52.667 -22 -101.667 -22 -147c0 -54.667 9.5 -103.5 28.5 -146.5s47 -76.833 84 -101.5s81.5 -37 133.5 -37c48 0 94.833 12.833 140.5 38.5s87.834 62.5 126.501 110.5
s69.5 103 92.5 165s36.5 128 40.5 198z" />
    <glyph glyph-name="p" unicode="p" 
d="M320 992c32 -8 63.332 -12.001 93.999 -12.001s58 4 82 12l-48 -208c38 68.667 91.167 121.834 159.5 159.501s139.5 56.5 213.5 56.5c62 0 119.333 -14 172 -42s95 -71.833 127 -131.5s48 -132.5 48 -218.5c-5.33301 -94.667 -30.166 -191.834 -74.499 -291.501
s-106.333 -182.667 -186 -249s-172.5 -99.5 -278.5 -99.5h-21c-72 0 -130.167 19.333 -174.5 58s-76.833 83.334 -97.5 134.001l-128 -688c-24 8 -51.333 12 -82 12s-62 -4 -94 -12zM959.999 495.999c12 58.667 18.002 112.998 18.002 162.998
c0 46.667 -6.16699 88.834 -18.5 126.501s-34.333 68.167 -66 91.5s-73.5 35 -125.5 35c-68 0 -127.833 -22.833 -179.5 -68.5s-92.5 -99.667 -122.5 -162s-52 -124.166 -66 -185.499c-10 -56.667 -15 -108.667 -15 -156c0 -87.333 17.667 -155.333 53 -204
s88.666 -73 159.999 -73c11.333 0 20 0.333008 26 1c40 0 83.167 15.5 129.5 46.5s88.666 79.5 126.999 145.5s64.833 146 79.5 240z" />
    <glyph glyph-name="q" unicode="q" 
d="M128 368c0 100 21.166 198 63.499 294s103.833 175 184.5 237s174 93 280 93c58 0 108.833 -10.5 152.5 -31.5s77.5 -48.333 101.5 -82s36 -68.834 36 -105.501c0 -4.66699 -0.666992 -11.667 -2 -21l48 240c24 -8 51.333 -12 82 -12s62 4 94 12l-288 -1520
c-24 8 -53.333 12 -88 12s-64 -4 -88 -12l128 688c-35.333 -77.333 -85.833 -128.666 -151.5 -153.999s-137.834 -38 -216.501 -38c-71.333 0 -132.666 16.333 -183.999 49s-89.666 76.167 -114.999 130.5s-38 114.833 -38 181.5c0 17.333 0.333008 30.333 1 39z
M895.999 512c6.66699 37.333 10.002 73.667 10.002 109c0 64 -11.167 117.833 -33.5 161.5s-52.333 76.167 -90 97.5s-79.834 32 -126.501 32c-64 -6 -122.333 -38.167 -175 -96.5s-93.667 -129.5 -123 -213.5s-44 -166.667 -44 -248c0 -51.333 7 -99 21 -143
s36.167 -79 66.5 -105s67.166 -40 110.499 -42c5.33301 -0.666992 13.333 -1 24 -1c63.333 0 121.833 19.167 175.5 57.5s96.667 92 129 161s50.833 145.833 55.5 230.5z" />
    <glyph glyph-name="r" unicode="r" horiz-adv-x="672" 
d="M336 992c32 -8 61.333 -11.999 88 -11.999s56 4 88 12l-32 -160c62 79.333 119.5 131.166 172.5 155.499s106.5 36.5 160.5 36.5h35l-80 -208c-11.333 11.333 -26.333 20.5 -45 27.5s-38.667 10.5 -60 10.5c-47.333 0 -92 -21.333 -134 -64s-74.333 -114 -97 -214
l-112 -576c-24 8 -53.333 12 -88 12s-64 -4 -88 -12z" />
    <glyph glyph-name="s" unicode="s" horiz-adv-x="784" 
d="M224 608c0 80 17.3359 150.173 52.0029 210.506s86 107 154 140s148.667 49.5 242 49.5c30.667 0 65 -5.33301 103 -16s67.667 -26.667 89 -48c-26.667 -26.667 -53.334 -80 -80.001 -160h-32c-4.66699 49.333 -20.5 86.166 -47.5 110.499s-59.5 36.5 -97.5 36.5
s-75 -11.667 -111 -35c-28 -18.667 -51.167 -42.334 -69.5 -71.001s-27.5 -57.334 -27.5 -86.001c0 -54.667 32.333 -98.334 97 -131.001c19.333 -12 49.666 -26.167 90.999 -42.5s76.833 -32.333 106.5 -48s54.834 -36.667 75.501 -63s31 -60.5 31 -102.5
c-4.66699 -74 -26.667 -139 -66 -195s-91 -99 -155 -129s-133 -45 -207 -45c-16 0 -28 0.333008 -36 1c-48.667 0 -95.334 6.16699 -140.001 18.5s-78 32.833 -100 61.5c4.66699 4.66699 12.667 16.167 24 34.5s20.833 37.333 28.5 57s11.5 37.167 11.5 52.5h32
c34.667 -62.667 68.667 -102.334 102 -119.001s68.666 -25 105.999 -25c40 0 78.667 10 116 30s67 45.833 89 77.5s33 63.167 33 94.5c0 25.333 -7.5 48.166 -22.5 68.499s-38.833 36.833 -71.5 49.5c-5.33301 2 -35 12 -89 30s-96.167 34.5 -126.5 49.5
s-55.333 34.333 -75 58s-29.5 52.5 -29.5 86.5z" />
    <glyph glyph-name="t" unicode="t" horiz-adv-x="560" 
d="M192 240l127.998 640h-128c8 16 12 32 12 48s-4 32 -12 48h144l32 176l192 80l-48 -256h208c-8 -16 -12 -32 -12 -48s4 -32 12 -48h-224l-112 -528c-12 -62 -18 -113.667 -18 -155c0 -50 8.83301 -86.833 26.5 -110.5s45.834 -35.5 84.501 -35.5
c24.667 0 52.334 4.33301 83.001 13v-64c-72 -20.667 -134.667 -31 -188 -31c-128 0 -192 58.333 -192 175c0 28 4 60 12 96z" />
    <glyph glyph-name="u" unicode="u" 
d="M192 288l128 688.001c32 -8 61.333 -12 88 -12s56 4 88 12l-112 -624c-4 -26 -6 -50 -6 -72c0 -66 16 -115.5 48 -148.5s73 -49.5 123 -49.5c41.333 0 83.833 10.5 127.5 31.5s81 49.667 112 86s50.833 76.5 59.5 120.5l128 656c32 -8 61.333 -12 88 -12s56 4 88 12
l-192 -976c-32 8 -61.333 12 -88 12s-56 -4 -88 -12l32 144c-41.333 -41.333 -77.333 -73 -108 -95s-66 -38.333 -106 -49s-91.333 -16 -154 -16c-172 0 -258 86 -258 258c0 9.33301 0.666992 24.666 2 45.999z" />
    <glyph glyph-name="v" unicode="v" horiz-adv-x="1024" 
d="M224 976c32 -8 61.334 -11.999 88.001 -11.999s56 4 88 12c14.667 -84 31.167 -173.333 49.5 -268s35.166 -176.5 50.499 -245.5s35.333 -153.833 60 -254.5c36 36 104.5 142.667 205.5 320s181.833 326.666 242.5 447.999c24 -8 50.667 -12 80 -12s56 4 80 12
l-165.5 -260.5l-173 -268.5l-141 -225.5l-128.5 -221.5c-16 8 -37.333 12 -64 12s-48 -4 -64 -12z" />
    <glyph glyph-name="w" unicode="w" horiz-adv-x="1584" 
d="M384 0c-11.333 79.333 -24.332 163.335 -38.999 252.002s-30.667 180 -48 274l-48 250.5l-41 199.5c32 -8 64 -12 96 -12s64 4 96 12l33 -261c11.333 -88.667 23.666 -174.5 36.999 -257.5s27.333 -155.5 42 -217.5l154 244.5c50 83 97.5 166.833 142.5 251.5
s84.833 164.667 119.5 240c16 -8 34.667 -12 56 -12s40 4 56 12l96 -752c38 53.333 79.5 114.833 124.5 184.5l141.5 228c49.333 82.333 89 151.666 119 207.999s51 100.166 63 131.499c24 -8 48.667 -12 74 -12s54 4 86 12c-122.667 -175.333 -234 -342.333 -334 -501
s-191.333 -317 -274 -475c-24 8 -45.333 12 -64 12s-40 -4 -64 -12l-96 704c-32 -42.667 -67.833 -96.167 -107.5 -160.5l-113.5 -192.5l-107.5 -193.5l-87.5 -157.5c-16 8 -34.667 12 -56 12s-40 -4 -56 -12z" />
    <glyph glyph-name="x" unicode="x" horiz-adv-x="1024" 
d="M512 480l-272.001 496.001c40 -8 81.333 -12 124 -12s76 4 100 12c16.667 -44.667 34.5 -85.667 53.5 -123l76 -143c31.667 -58 52.5 -97.333 62.5 -118l368 384c24 -8 48.667 -12 74 -12s54 4 86 12l-496 -432l288 -544c-40 8 -76.667 12 -110 12s-66 -4 -98 -12
c-10.667 30.667 -29.5 75 -56.5 133s-55.167 113.167 -84.5 165.5s-51.666 86.166 -66.999 101.499l-368 -400c-16 8 -35.333 12 -58 12s-46 -4 -70 -12v48z" />
    <glyph glyph-name="y" unicode="y" horiz-adv-x="1024" 
d="M448 0l-61.501 286.999c-18.333 82 -40.666 176.667 -66.999 284l-59 238.5l-36.5 150.5c32 -8 66.667 -12 104 -12s72 4 104 12c7.33301 -53.333 18.5 -121.166 33.5 -203.499s27.833 -149.5 38.5 -201.5l41.5 -199c17 -80.667 27.167 -130 30.5 -148l112 166.5
l123.5 199.5l110.5 186.5l118 199.5c24 -8 48 -12 72 -12s48 4 72 12l-976 -1504c-24 8 -50.667 12 -80 12s-56 -4 -80 -12z" />
    <glyph glyph-name="z" unicode="z" horiz-adv-x="1024" 
d="M32 0l-0.00195312 32l816 848c-21.333 2.66699 -52.333 4 -93 4c-67.333 0 -149.666 -4.16699 -246.999 -12.5s-160 -16.166 -188 -23.499c10.667 32 16 74.667 16 128h784l-16 -48l-784 -832c38 0 96.5 1.66699 175.5 5s146.333 6.66602 202 9.99902
s137.834 9 246.501 17l-15 -43c-5.33301 -14.667 -9.5 -29 -12.5 -43s-4.5 -28 -4.5 -42h-880z" />
    <glyph glyph-name="braceleft" unicode="{" horiz-adv-x="672" 
d="M240 656c64.667 24 110.831 50.833 138.498 80.5s45.5 72.167 53.5 127.5l96 448c14.667 68 43 118.5 85 151.5s86.667 53.333 134 61s102.333 11.5 165 11.5c-54.667 -21.333 -97.167 -43.666 -127.5 -66.999s-53.666 -50.5 -69.999 -81.5s-30.5 -72.167 -42.5 -123.5
l-64 -352c-14 -83.333 -39.5 -143.5 -76.5 -180.5s-75.5 -62.167 -115.5 -75.5c63.333 -31.333 95 -86.333 95 -165c0 -32 -5 -67.667 -15 -107l-80 -368c-2 -20 -3 -38.667 -3 -56c0 -54.667 10.333 -95.167 31 -121.5s54 -47.166 100 -62.499
c-15.333 -1.33301 -36.666 -2 -63.999 -2c-78 0 -133.5 13.667 -166.5 41s-49.5 73.666 -49.5 138.999c0 25.333 2.66699 56.666 8 93.999l64 336c17.333 78.667 26 126 26 142c0 28 -9 52.167 -27 72.5s-49.667 39.5 -95 57.5z" />
    <glyph glyph-name="bar" unicode="|" horiz-adv-x="672" 
d="M256 0l304 1536h144l-304 -1536h-144z" />
    <glyph glyph-name="braceright" unicode="}" horiz-adv-x="672" 
d="M512 640c-40 15.333 -67.835 35.3369 -83.502 60.0039s-23.5 55 -23.5 91c0 16 3.66699 51 11 105l80 384c5.33301 23.333 8 46 8 68c0 43.333 -11.333 77.5 -34 102.5s-56.667 48.167 -102 69.5c8.66699 0.666992 21.334 1 38.001 1c168.667 0 253 -62.667 253 -188
c0 -29.333 -6.33301 -73.666 -19 -132.999l-64 -304c-6.66699 -53.333 -10 -90.333 -10 -111c0 -38.667 9.16699 -70 27.5 -94s49.833 -41 94.5 -51c-46.667 -15.333 -84.5 -33.833 -113.5 -55.5s-50.667 -48.334 -65 -80.001s-24.166 -71.834 -29.499 -120.501l-64 -336
c-9.33301 -57.333 -24 -105.333 -44 -144s-44.167 -68.834 -72.5 -90.501s-58.833 -36.667 -91.5 -45s-69 -12.5 -109 -12.5c-30.667 0 -58.334 1.33301 -83.001 4c34 5.33301 67 16.666 99 33.999s59.667 42 83 74s37.333 70.667 42 116l80 400
c5.33301 35.333 15.333 69.333 30 102s35.334 62.667 62.001 90s60 48.666 100 63.999z" />
    <glyph glyph-name="asciitilde" unicode="~" horiz-adv-x="1232" 
d="M176 432c120 160 226.666 240.001 319.999 240.001c46 0 88.167 -6.33301 126.5 -19s80.5 -31.167 126.5 -55.5s82 -42 108 -53s55 -16.5 87 -16.5c50 0 97.333 19.167 142 57.5s77.334 77.833 98.001 118.5l64 -96c-16.667 -34 -43 -68.5 -79 -103.5
s-76.5 -63.833 -121.5 -86.5s-90.167 -34 -135.5 -34c-40 0 -86 12 -138 36l-156 72c-52 24 -98 36 -138 36c-32.667 0 -67 -14.333 -103 -43s-81.667 -78.334 -137 -149.001z" />
    <glyph glyph-name="exclamdown" unicode="&#xa1;" horiz-adv-x="672" 
d="M176 -272l256 912.001h48l-80 -864c-4 -70.667 -19.333 -124.334 -46 -161.001s-56.667 -55 -90 -55c-25.333 0 -47.333 11 -66 33s-28 50.333 -28 85c0 15.333 2 32 6 50zM384 880.001c10 40.667 28.499 71.9971 55.499 93.9971s56.833 33 89.5 33
c30.667 0 57.334 -9.5 80.001 -28.5s34 -43.5 34 -73.5c0 -7.33301 -1 -15.666 -3 -24.999c-11.333 -41.333 -31.5 -73.666 -60.5 -96.999s-59.5 -35 -91.5 -35c-30 0 -54.833 10.833 -74.5 32.5s-29.5 54.834 -29.5 99.501z" />
    <glyph glyph-name="cent" unicode="&#xa2;" 
d="M208 320c4 125.333 26.3271 231.169 66.9941 317.502s92.834 154 156.501 203s132.834 84 207.501 105s149.334 31.5 224.001 31.5c22 0 38.333 -0.333008 49 -1l112 224c10.667 -10.667 37.334 -16 80.001 -16l-112 -224c43.333 -8.66699 77.833 -18.5 103.5 -29.5
s49.834 -27.833 72.501 -50.5c-32 -32 -58.667 -80 -80 -144h-32c-7.33301 36.667 -23.166 67.167 -47.499 91.5s-45.833 36.5 -64.5 36.5l-400 -784c54 -21.333 103.667 -32 149 -32c44.667 0 91.5 10.333 140.5 31s107.167 53 174.5 97l-32 -112
c-32 -24 -79.833 -46.833 -143.5 -68.5s-129.5 -32.5 -197.5 -32.5c-50.667 0 -97 7 -139 21l-128 -256c-21.333 21.333 -48 32 -80 32l128 240c-74 37.333 -127.167 84.166 -159.5 140.499s-48.5 116.166 -48.5 179.499zM479.994 144.003l383.999 751.999
c-108 0 -197.167 -31 -267.5 -93s-125.166 -137.667 -164.499 -227c-10.667 -24.667 -19.5 -55.667 -26.5 -93s-10.5 -73.666 -10.5 -108.999c0 -50 7 -95.667 21 -137s35.333 -72.333 64 -93z" />
    <glyph glyph-name="sterling" unicode="&#xa3;" 
d="M112 144c21.333 -1.33301 36.999 -1.99805 46.999 -1.99805c76 0 137.5 16.333 184.5 49s82 74.667 105 126s39.167 101.5 48.5 150.5s19.666 117.167 30.999 204.5l-208 -16l16 112c42.667 -10.667 106.667 -16 192 -16c4 90.667 17 175 39 253s53.167 145.5 93.5 202.5
s92.333 102 156 135s138.167 49.5 223.5 49.5c57.333 0 112.5 -9.5 165.5 -28.5s83.167 -46.833 90.5 -83.5l-112 -96c-17.333 85.333 -65.333 128 -144 128c-70.667 0 -129.667 -20 -177 -60s-84.5 -101.667 -111.5 -185s-42.833 -188.333 -47.5 -315
c149.333 0 250.666 5.33301 303.999 16l-16 -112l-304 16c0 -50.667 -8.16699 -102.334 -24.5 -155.001s-38.5 -102.5 -66.5 -149.5s-60.5 -90 -97.5 -129s-75.5 -70.5 -115.5 -94.5l704 32c-9.33301 -18.667 -16.166 -35.834 -20.499 -51.501s-8.66602 -35 -12.999 -58
s-9.16602 -45.167 -14.499 -66.5h-944c15.333 47.333 23 81.333 23 102c0 14.667 -2.33301 28.667 -7 42z" />
    <glyph glyph-name="currency" unicode="&#xa4;" 
d="M240 384c-37.333 74.667 -56.001 150.333 -56.001 227c0 49.333 7.16699 97.166 21.5 143.499s35.333 92.5 63 138.5s60.834 89.667 99.501 131l-80 112l112 80l80 -96c43.333 20.667 84.666 38 123.999 52s76.833 24.833 112.5 32.5s70.834 11.5 105.501 11.5
c96 0 190 -32 282 -96l112 96l96 -80l-128 -112c40 -74 60 -151 60 -231c0 -70.667 -16 -141.167 -48 -211.5s-78.667 -136.166 -140 -197.499l80 -96l-112 -96l-96 96c-89.333 -68.667 -191 -103 -305 -103c-58 0 -114 9.33301 -168 28s-99 43.667 -135 75l-128 -96l-80 80
zM1104 735.999c1.33301 13.333 1.99902 24.001 1.99902 32.001c0 49.333 -11.5 98.833 -34.5 148.5s-57.833 90.667 -104.5 123s-102.334 48.5 -167.001 48.5c-76 0 -148.667 -18.333 -218 -55s-127.666 -87.834 -174.999 -153.501s-76.333 -140.167 -87 -223.5
c-0.666992 -6.66699 -1 -16 -1 -28c0 -64 15.833 -119.5 47.5 -166.5s73.167 -82.333 124.5 -106s106.333 -35.5 165 -35.5c48.667 0 105.334 15.833 170.001 47.5s123.5 79 176.5 142s86.833 138.5 101.5 226.5z" />
    <glyph glyph-name="yen" unicode="&#xa5;" 
d="M208 560l384 -0.000976562v48l-80 176h-256l16 112h208l-192 528c32 -8 69.333 -12 112 -12s80 4 112 12l208 -704c48 60.667 103.333 134.334 166 221.001l180 256.5l150 226.5c24 -8 48.667 -12 74 -12s54 4 86 12l-416 -528h208l-16 -112h-272l-112 -160l-16 -64h352
l-16 -112h-352l-80 -448c-24 8 -48.667 12 -74 12s-54 -4 -86 -12l80 448h-384z" />
    <glyph glyph-name="brokenbar" unicode="&#xa6;" horiz-adv-x="735" 
d="M256 0l304 1536h144l-304 -1536h-144z" />
    <glyph glyph-name="section" unicode="&#xa7;" horiz-adv-x="1024" 
d="M240 576c0 65.333 13.6689 123.168 41.002 173.501s72.333 99.166 135 146.499c-10 35.333 -15 72.666 -15 111.999c0 46 7 91.5 21 136.5s37 87.667 69 128s75.333 74.333 130 102s119.667 44.167 195 49.5c38 0 76.167 -5.16699 114.5 -15.5s71.5 -25.166 99.5 -44.499
s47.333 -42 58 -68c-22 -14.667 -38.833 -30.334 -50.5 -47.001s-26.834 -43.667 -45.501 -81h-16c-6.66699 38.667 -19.334 71.334 -38.001 98.001s-41.334 46.334 -68.001 59.001s-55 19 -85 19c-40.667 0 -80.167 -10 -118.5 -30s-70.333 -48.333 -96 -85
s-39.834 -78.334 -42.501 -125.001c0 -44.667 18.5 -80.167 55.5 -106.5s96.167 -59 177.5 -98s143 -77.5 185 -115.5s63 -88 63 -150c0 -11.333 -0.333008 -20 -1 -26c-5.33301 -40.667 -13.166 -75.5 -23.499 -104.5s-28.5 -58.167 -54.5 -87.5s-64 -61.333 -114 -96
c40.667 -43.333 61 -93.666 61 -150.999c0 -64.667 -24.833 -130.334 -74.5 -197.001s-113.334 -121.334 -191.001 -164.001s-153.5 -64 -227.5 -64c-37.333 0 -85.166 7.33301 -143.499 22s-111.833 39.334 -160.5 74.001c21.333 21.333 37.333 45.333 48 72
s21.334 61.334 32.001 104.001h16c64 -128 144 -192 240 -192c50.667 0 98.167 11.333 142.5 34s82.166 50.334 113.499 83.001s52.666 63 63.999 91c6.66699 18 10 36 10 54c0 46.667 -20.167 84.167 -60.5 112.5s-102.666 61.666 -186.999 99.999
s-148.666 76 -192.999 113s-66.5 84.5 -66.5 142.5c0 9.33301 0.333008 16.666 1 21.999zM784.002 352.002c67.333 62.667 101 120.002 101 172.002c0 40 -14.167 72 -42.5 96s-69.166 52 -122.499 84c-23.333 15.333 -56.666 34 -99.999 56s-78.5 40.5 -105.5 55.5
s-49.167 31.167 -66.5 48.5c-30.667 -30.667 -54.834 -58.834 -72.501 -84.501s-26.5 -53.167 -26.5 -82.5c0 -7.33301 1 -15.666 3 -24.999c4 -27.333 14.5 -51.833 31.5 -73.5s38.833 -41.834 65.5 -60.501s53.167 -34.334 79.5 -47.001s58.166 -27 95.499 -43
c8 -5.33301 32 -18 72 -38s69.333 -39.333 88 -58z" />
    <glyph glyph-name="dieresis" unicode="&#xa8;" horiz-adv-x="672" 
d="M288 1232c7.33301 30.667 21.9971 54.334 43.9971 71.001s45.333 25 70 25c22.667 0 41.334 -7.83301 56.001 -23.5s22 -39.834 22 -72.501c-6.66699 -35.333 -20.667 -62.166 -42 -80.499s-44.666 -27.5 -69.999 -27.5c-23.333 0 -43.166 7.33301 -59.499 22
s-24.5 34 -24.5 58c0 5.33301 1.33301 14.666 4 27.999zM687.997 1232c7.33301 32 20.833 56 40.5 72s41.167 24 64.5 24c24.667 0 45.334 -8 62.001 -24s25 -40 25 -72c-4 -34 -17 -60.5 -39 -79.5s-47 -28.5 -75 -28.5c-22.667 0 -41.834 7 -57.501 21
s-23.5 33.333 -23.5 58c0 9.33301 1 19 3 29z" />
    <glyph glyph-name="copyright" unicode="&#xa9;" horiz-adv-x="1520" 
d="M144 592c10 144 56.835 280.167 140.502 408.5s191.834 231 324.501 308s272.667 115.5 420 115.5h27c111.333 -4 205.333 -24 282 -60s138 -84.167 184 -144.5s78.5 -126 97.5 -197s28.5 -145.167 28.5 -222.5c0 -101.333 -23.833 -202 -71.5 -302
s-113.334 -190.333 -197.001 -271s-179.334 -144.667 -287.001 -192s-217.834 -71 -330.501 -71c-16 0 -40.667 1.33301 -74 4c-99.333 7.33301 -184.333 31.166 -255 71.499s-127.167 90.833 -169.5 151.5s-72.833 125.334 -91.5 194.001s-28 137.667 -28 207zM1520 800
c0 116 -24.832 212.501 -74.499 289.501s-113.667 133.333 -192 169s-160.166 53.5 -245.499 53.5c-78.667 0 -159 -17.5 -241 -52.5s-158.333 -83.667 -229 -146s-129.834 -134.5 -177.501 -216.5s-77.167 -167.667 -88.5 -257c-2 -20 -3 -39.333 -3 -58
c0 -65.333 11.667 -128 35 -188s57 -114 101 -162s95.833 -85.333 155.5 -112s123.5 -40 191.5 -40c5.33301 0 9.66602 -0.166992 12.999 -0.5s7 -0.5 11 -0.5c79.333 0 162.833 17.833 250.5 53.5s169 86.167 244 151.5s135.333 142.166 181 230.499s68.5 183.5 68.5 285.5
zM448.003 624.001c10.667 103.333 42.8311 192.332 96.498 266.999s121 131.5 202 170.5s168.167 58.5 261.5 58.5c47.333 0 98.333 -6.5 153 -19.5s94.334 -27.833 119.001 -44.5c-21.333 -21.333 -42.666 -53.333 -63.999 -96h-16
c-12.667 22.667 -37.5 41.334 -74.5 56.001s-79.833 22 -128.5 22c-86 0 -165.667 -26.667 -239 -80s-123.333 -138 -150 -254c-9.33301 -35.333 -14 -70.666 -14 -105.999c0 -76 23.667 -134.667 71 -176s110.333 -62 189 -62c87.333 0 181.333 24 282 72l-32 -80
c-71.333 -42.667 -167.333 -64 -288 -64c-95.333 0 -180.5 22.667 -255.5 68s-112.5 134.666 -112.5 267.999z" />
    <glyph glyph-name="ordfeminine" unicode="&#xaa;" horiz-adv-x="656" 
d="M192 720h560l-16 -80h-560zM672 1216l16.0029 64c0 29.333 -13 53.833 -39 73.5s-59.333 29.5 -100 29.5c-66.667 0 -132.334 -29 -197.001 -87h-16l16 64c66.667 53.333 152 80 256 80c73.333 0 124.5 -13.167 153.5 -39.5s43.5 -63.166 43.5 -110.499
c0 -16.667 -1.66699 -36 -5 -58l-48 -256c-5.33301 -21.333 -8 -39 -8 -53c0 -30.667 14.667 -46 44 -46c7.33301 0 16.666 1 27.999 3l-16 -32c-37.333 -8.66699 -69.333 -13 -96 -13c-55.333 0 -83 18.333 -83 55c0 6.66699 1 14 3 22c-26 -26 -61.167 -48.5 -105.5 -67.5
s-89.166 -28.5 -134.499 -28.5c-58.667 0 -102.667 14.667 -132 44s-44 62.666 -44 99.999c0 58 20.667 100.833 62 128.5s92.166 46.5 152.499 56.5l167.5 27.5c51.333 8.33301 78.666 22.833 81.999 43.5zM624.003 960l32.001 175.998
c-26.667 -4.66699 -56.834 -9.66699 -90.501 -15s-68.5 -13.666 -104.5 -24.999s-65.833 -26.666 -89.5 -45.999s-35.5 -44 -35.5 -74c0 -27.333 10.667 -49.833 32 -67.5s48.333 -26.5 81 -26.5c58 0 116.333 26 175 78z" />
    <glyph glyph-name="guillemotleft" unicode="&#xab;" horiz-adv-x="1024" 
d="M559 480l352 383.999c3.33301 -7.33301 8.33301 -15.666 15 -24.999s14.667 -17.333 24 -24s17.666 -11.667 24.999 -15l-304 -320l160 -336c-16 -6.66699 -32.667 -14 -50 -22s-32.666 -22 -45.999 -42zM272 479.999l352 383.999
c3.33301 -7.33301 8.33301 -15.666 15 -24.999s14.667 -17.333 24 -24s17.666 -11.667 24.999 -15l-304 -320l160 -336c-16 -6.66699 -32.667 -14 -50 -22s-32.666 -22 -45.999 -42z" />
    <glyph glyph-name="logicalnot" unicode="&#xac;" horiz-adv-x="1232" 
d="M1120 656h-896c21.333 42.667 32 90.667 32 144h1040l-112 -576h-144z" />
    <glyph glyph-name="registered" unicode="&#xae;" horiz-adv-x="1520" 
d="M160 576c0 102 23.833 204 71.5 306s113 194.5 196 277.5s177.667 149.5 284 199.5s215.833 77 328.5 81c120 0 226.333 -27.667 319 -83s164.167 -129.666 214.5 -222.999s75.5 -194 75.5 -302c0 -14 -0.333008 -24.667 -1 -32
c-5.33301 -134 -46.333 -265.833 -123 -395.5s-181.5 -234.834 -314.5 -315.501s-280.5 -121 -442.5 -121c-141.333 0 -257.333 29.167 -348 87.5s-156.667 133.833 -198 226.5s-62 190.667 -62 294zM288 656c-2 -20.667 -3.00195 -41.6689 -3.00195 -63.002
c0 -88 19 -170.167 57 -246.5s91.5 -138.666 160.5 -186.999s146.833 -74.833 233.5 -79.5c21.333 -1.33301 37 -2 47 -2c108.667 0 208.334 23.333 299.001 70s168.167 107 232.5 181s113.833 150.333 148.5 229s53.667 148.667 57 210c0.666992 8 1 20 1 36
c0 61.333 -9.83301 121 -29.5 179s-49.5 111.167 -89.5 159.5s-92 88 -156 119s-138 47.833 -222 50.5c-73.333 0 -149 -15 -227 -45s-151.833 -73.167 -221.5 -129.5s-130.167 -125.666 -181.5 -207.999s-86.666 -173.5 -105.999 -273.5zM543.998 287.998l160.003 800.001
h288c80 0 137.333 -14.333 172 -43s52 -62.334 52 -101.001c-4.66699 -41.333 -19.834 -79.666 -45.501 -114.999s-58.834 -64.833 -99.501 -88.5s-88.334 -41.167 -143.001 -52.5l256 -400c-32 8 -60.667 12 -86 12s-50 -4 -74 -12c-18 37.333 -39.333 76.666 -64 117.999
l-93 151l-83 131h-32l-80 -400c-24 8 -45.333 12 -64 12s-40 -4 -64 -12zM768.001 751.999l127.999 0.000976562c34 0 65.833 9.5 95.5 28.5s53.334 42.5 71.001 70.5s26.5 55.667 26.5 83s-9.33301 49.166 -28 65.499s-47 24.5 -85 24.5h-160z" />
    <glyph glyph-name="plusminus" unicode="&#xb1;" horiz-adv-x="1233" 
 />
    <glyph glyph-name="twosuperior" unicode="&#xb2;" horiz-adv-x="672" 
 />
    <glyph glyph-name="threesuperior" unicode="&#xb3;" horiz-adv-x="672" 
 />
    <glyph glyph-name="acute" unicode="&#xb4;" horiz-adv-x="672" 
d="M400 1072l336 287.998c45.333 40.667 87.333 61 126 61c18 0 32.333 -4.66699 43 -14s16 -21.666 16 -36.999c0 -16.667 -7.16699 -34.167 -21.5 -52.5s-36.833 -36.166 -67.5 -53.499l-336 -192h-96z" />
    <glyph glyph-name="mu" unicode="&#xb5;" horiz-adv-x="1137" 
 />
    <glyph glyph-name="paragraph" unicode="&#xb6;" horiz-adv-x="1632" 
d="M656 -208l175.999 864c-23.333 -2.66699 -50.666 -4 -81.999 -4c-212 0 -318 92 -318 276c0 161.333 44.167 279 132.5 353s193.5 111 315.5 111h544l-320 -1600c-24 8 -48 12 -72 12s-48 -4 -72 -12l304 1536h-160l-304 -1536c-24 8 -48 12 -72 12s-48 -4 -72 -12z
M847.999 720l128.003 608c-54.667 -5.33301 -98.834 -18.166 -132.501 -38.499s-61.334 -53.833 -83.001 -100.5s-40.5 -112.334 -56.5 -197.001c-7.33301 -46 -11 -85 -11 -117c0 -52.667 10.167 -92 30.5 -118s52.166 -39 95.499 -39c6 0 15.667 0.666992 29 2z" />
    <glyph glyph-name="periodcentered" unicode="&#xb7;" horiz-adv-x="560" 
d="M384 624c0 76.667 20.5 147.166 61.5 211.499s95.667 114.5 164 150.5s142.5 54 222.5 54c44 0 87 -10.833 129 -32.5s76.333 -54.5 103 -98.5s40 -96.333 40 -157c-4.66699 -78.667 -28.5 -150.167 -71.5 -214.5s-96.333 -114 -160 -149s-125.167 -52.5 -184.5 -52.5
c-96 0 -170.667 29.833 -224 89.5s-80 125.834 -80 198.501z" />
    <glyph glyph-name="cedilla" unicode="&#xb8;" horiz-adv-x="672" 
d="M192 -192l127.999 208.001h80l-80 -128c58.667 0 105.334 -8.66699 140.001 -26s52 -51.333 52 -102c0 -68 -26.5 -117.333 -79.5 -148s-116.833 -46 -191.5 -46c-80 0 -139 11.333 -177 34l48 64c36.667 -12.667 73.667 -19 111 -19c76.667 0 119.667 27.667 129 83
c1.33301 9.33301 2 15.666 2 18.999c0 36 -25 54 -75 54c-17.333 0 -41 -3 -71 -9z" />
    <glyph glyph-name="onesuperior" unicode="&#xb9;" horiz-adv-x="672" 
 />
    <glyph glyph-name="ordmasculine" unicode="&#xba;" horiz-adv-x="688" 
d="M240 1088c0 48 14.334 97.999 43.001 149.999s73.167 96 133.5 132s134.833 54 223.5 54c79.333 0 142.666 -18.5 189.999 -55.5s71 -90.167 71 -159.5c0 -21.333 -1.66699 -40.333 -5 -57c-14.667 -89.333 -42.667 -159 -84 -209s-88.5 -83.667 -141.5 -101
s-111.167 -26 -174.5 -26c-89.333 0 -154.833 24.333 -196.5 73s-62.5 103.334 -62.5 164.001c0 12 1 23.667 3 35zM768.001 1120c6.66699 37.333 10.0029 70.998 10.0029 100.998c0 52 -11.333 89.333 -34 112s-57.334 37 -104.001 43
c-4.66699 0.666992 -11.334 1 -20.001 1c-45.333 0 -88.5 -18.167 -129.5 -54.5s-73.667 -81.666 -98 -135.999s-36.5 -106.833 -36.5 -157.5c0 -49.333 12.667 -89.166 38 -119.499s64.666 -45.5 117.999 -45.5c48.667 0 91.667 12.833 129 38.5s66.5 58.5 87.5 98.5
s34.167 79.667 39.5 119zM192.004 703.997h592l-16 -64h-592z" />
    <glyph glyph-name="guillemotright" unicode="&#xbb;" horiz-adv-x="1024" 
d="M816 448l-160.001 335.999c22 0 38.833 3.33301 50.5 10s26.834 19.334 45.501 38.001l176 -400l-320 -368c-32 32 -58.667 53.333 -80 64zM526.999 447.999l-160.001 335.999c22 0 38.833 3.33301 50.5 10s26.834 19.334 45.501 38.001l176 -400l-320 -368
c-32 32 -58.667 53.333 -80 64z" />
    <glyph glyph-name="onequarter" unicode="&#xbc;" horiz-adv-x="1696" 
 />
    <glyph glyph-name="onehalf" unicode="&#xbd;" horiz-adv-x="1696" 
 />
    <glyph glyph-name="threequarters" unicode="&#xbe;" horiz-adv-x="1696" 
 />
    <glyph glyph-name="questiondown" unicode="&#xbf;" horiz-adv-x="784" 
d="M80 -208c0 30.667 1.99902 57.8311 5.99902 81.498s11 45.834 21 66.501s22.333 40.667 37 60c16.667 23.333 49.334 57.333 98.001 102l144.5 132c47.667 43.333 87.667 83.5 120 120.5s50.166 68.167 53.499 93.5c1.33301 9.33301 2 16.333 2 21c0 30 -9 52.5 -27 67.5
s-39.667 22.5 -65 22.5c-20.667 0 -38.667 -5 -54 -15l-16 16l16 48c18 18 44 27 78 27c30 0 60 -7.66699 90 -23s54.833 -38.333 74.5 -69s29.5 -67.667 29.5 -111c0 -109.333 -90.667 -232 -272 -368c-63.333 -50 -112.666 -100.167 -147.999 -150.5s-53 -95.5 -53 -135.5
c0 -69.333 51 -107.333 153 -114c48 0 112 26.667 192 80l-16 -112c-78 -36.667 -153.667 -55 -227 -55c-47.333 0 -88.833 7.66699 -124.5 23s-63.5 37.5 -83.5 66.5s-30 64.167 -30 105.5c0 8.66699 0.333008 15.334 1 20.001zM463.999 879.997
c12.667 44 33.667 77.333 63 100s60.333 34 93 34c28.667 0 52.5 -9.66699 71.5 -29s28.5 -49 28.5 -89c-4 -43.333 -21.333 -77.5 -52 -102.5s-65 -37.5 -103 -37.5c-28.667 0 -53.167 8.33301 -73.5 25s-30.5 40.667 -30.5 72c0 8 1 17 3 27z" />
    <glyph glyph-name="Agrave" unicode="&#xc0;" horiz-adv-x="1360" 
d="M799 1681c-15.333 15.333 -23 33 -23 53c0 20.667 8.66699 39.667 26 57s38 26 62 26c40.667 0 77.667 -24 111 -72l208 -272h-80zM16 0l911.999 1424h48l352 -1424c-40 8 -77.333 12 -112 12s-72 -4 -112 -12c-35.333 228.667 -72.666 415.334 -111.999 560.001h-496
c-112 -192 -213.333 -378.667 -304 -560c-24 8 -51.333 12 -82 12s-62 -4 -94 -12zM975.999 655.999l-112 496l-304 -496h416z" />
    <glyph glyph-name="Aacute" unicode="&#xc1;" horiz-adv-x="1360" 
d="M769 1471l336 287.998c45.333 40.667 87.333 61 126 61c18 0 32.333 -4.66699 43 -14s16 -21.666 16 -36.999c0 -16.667 -7.16699 -34.167 -21.5 -52.5s-36.833 -36.166 -67.5 -53.499l-336 -192h-96zM16 -0.00195312l911.999 1424h48l352 -1424
c-40 8 -77.333 12 -112 12s-72 -4 -112 -12c-35.333 228.667 -72.666 415.334 -111.999 560.001h-496c-112 -192 -213.333 -378.667 -304 -560c-24 8 -51.333 12 -82 12s-62 -4 -94 -12zM975.999 655.997l-112 496l-304 -496h416z" />
    <glyph glyph-name="Acircumflex" unicode="&#xc2;" horiz-adv-x="1360" 
d="M625 1473l320 352h128l192 -352h-80l-192 224l-288 -224h-80zM16 0l911.999 1424h48l352 -1424c-40 8 -77.333 12 -112 12s-72 -4 -112 -12c-35.333 228.667 -72.666 415.334 -111.999 560.001h-496c-112 -192 -213.333 -378.667 -304 -560c-24 8 -51.333 12 -82 12
s-62 -4 -94 -12zM975.999 655.999l-112 496l-304 -496h416z" />
    <glyph glyph-name="Atilde" unicode="&#xc3;" horiz-adv-x="1360" 
d="M607 1472c43.333 86.667 84.5 143.003 123.5 169.003s83.167 39 132.5 39c8 1.33301 14.333 2 19 2c20.667 0 42.167 -4.66699 64.5 -14s47.666 -22.833 75.999 -40.5s48.166 -29.334 59.499 -35.001s23.666 -8.5 36.999 -8.5c58.667 0 106.667 37.333 144 112h64
c-5.33301 -28 -20.666 -59.667 -45.999 -95s-56.833 -65.666 -94.5 -90.999s-76.167 -38 -115.5 -38c-24.667 0 -47.167 4.16699 -67.5 12.5s-43.166 20.666 -68.499 36.999s-46.333 28.166 -63 35.499s-35.667 11 -57 11c-20 0 -37.667 -4.33301 -53 -13
s-30.666 -20.834 -45.999 -36.501l-45 -46.5h-64zM16 0.00292969l911.999 1424h48l352 -1424c-40 8 -77.333 12 -112 12s-72 -4 -112 -12c-35.333 228.667 -72.666 415.334 -111.999 560.001h-496c-112 -192 -213.333 -378.667 -304 -560c-24 8 -51.333 12 -82 12
s-62 -4 -94 -12zM975.999 656.002l-112 496l-304 -496h416z" />
    <glyph glyph-name="Adieresis" unicode="&#xc4;" horiz-adv-x="1360" 
d="M687 1631c7.33301 30.667 21.9971 54.334 43.9971 71.001s45.333 25 70 25c22.667 0 41.334 -7.83301 56.001 -23.5s22 -39.834 22 -72.501c-6.66699 -35.333 -20.667 -62.166 -42 -80.499s-44.666 -27.5 -69.999 -27.5c-23.333 0 -43.166 7.33301 -59.499 22
s-24.5 34 -24.5 58c0 5.33301 1.33301 14.666 4 27.999zM1087 1631c7.33301 32 20.833 56 40.5 72s41.167 24 64.5 24c24.667 0 45.334 -8 62.001 -24s25 -40 25 -72c-4 -34 -17 -60.5 -39 -79.5s-47 -28.5 -75 -28.5c-22.667 0 -41.834 7 -57.501 21s-23.5 33.333 -23.5 58
c0 9.33301 1 19 3 29zM15.9971 0l911.999 1424h48l352 -1424c-40 8 -77.333 12 -112 12s-72 -4 -112 -12c-35.333 228.667 -72.666 415.334 -111.999 560.001h-496c-112 -192 -213.333 -378.667 -304 -560c-24 8 -51.333 12 -82 12s-62 -4 -94 -12zM975.996 655.999
l-112 496l-304 -496h416z" />
    <glyph glyph-name="Aring" unicode="&#xc5;" horiz-adv-x="1360" 
d="M801 1681c8.66699 70.667 39.667 127.002 93 169.002s111.333 63 174 63c48.667 0 88.334 -13.833 119.001 -41.5s46 -69.834 46 -126.501c-2.66699 -46.667 -17.834 -88.334 -45.501 -125.001s-61.167 -65 -100.5 -85s-79.666 -30 -120.999 -30
c-48.667 0 -88.334 14.833 -119.001 44.5s-46 73.5 -46 131.5zM1137 1729c0 31.333 -9.16699 54.501 -27.5 69.501s-41.833 22.5 -70.5 22.5c-34 0 -65.167 -10.667 -93.5 -32s-44.5 -52 -48.5 -92c0 -36.667 9.5 -64.334 28.5 -83.001s43.167 -28 72.5 -28
c36.667 0 69 12.667 97 38s42 60.333 42 105zM16 0.00292969l911.999 1424h48l352 -1424c-40 8 -77.333 12 -112 12s-72 -4 -112 -12c-35.333 228.667 -72.666 415.334 -111.999 560.001h-496c-112 -192 -213.333 -378.667 -304 -560c-24 8 -51.333 12 -82 12
s-62 -4 -94 -12zM975.999 656.002l-112 496l-304 -496h416z" />
    <glyph glyph-name="AE" unicode="&#xc6;" horiz-adv-x="1696" 
d="M0 0l1216 1408h688c-15.333 -47.333 -23 -83.666 -23 -108.999c0 -14.667 2.33301 -26.334 7 -35.001c-55.333 10.667 -109.666 18 -162.999 22s-105.666 6.66699 -156.999 8s-115.333 2 -192 2l-96 -512h272l160 16c-10.667 -32 -16 -74.667 -16 -128l-144 16h-288
l-112 -576c74.667 0 158.667 3.16699 252 9.5s180 13.833 260 22.5c-21.333 -64 -32 -106.667 -32 -128h-704l96 496h-464c-21.333 -30.667 -51 -71.167 -89 -121.5l-99 -132l-95 -131c-35.333 -49.667 -63.666 -92.167 -84.999 -127.5c-32 8 -62 12 -90 12s-62 -4 -102 -12
zM1040 608l128 640l-528 -640h400z" />
    <glyph glyph-name="Ccedilla" unicode="&#xc7;" horiz-adv-x="1360" 
d="M192 592c20 182 76.3369 335.833 169.004 461.5s206 218.834 340 279.501s273.667 91 419 91c64.667 0 125.5 -5.66699 182.5 -17s106.833 -25.5 149.5 -42.5s76 -34.5 100 -52.5c-42.667 -64 -69.334 -117.333 -80.001 -160h-16
c-20.667 41.333 -59.5 79.166 -116.5 113.499s-135.5 55.166 -235.5 62.499c-130.667 -4 -242.167 -36.333 -334.5 -97s-165 -134.667 -218 -222s-91.5 -174.833 -115.5 -262.5s-36 -160.5 -36 -218.5c0 -64 12.5 -132.333 37.5 -205s71.833 -136.667 140.5 -192
s164 -83 286 -83c53.333 0 107.166 8.5 161.499 25.5s105.833 39.167 154.5 66.5s92.667 55.333 132 84l-48 -144c-36 -24 -80 -45 -132 -63s-104.333 -31.333 -157 -40s-100.334 -13 -143.001 -13c-26.667 0 -48 1.33301 -64 4l-64 -96c24 4 45.333 6 64 6
c45.333 0 79.5 -10.5 102.5 -31.5s34.5 -48.167 34.5 -81.5c0 -17.333 -3 -35 -9 -53c-37.333 -103.333 -125 -155 -263 -155c-56 0 -117.667 9 -185 27l48 80c44.667 -18 85.667 -27 123 -27c40 0 72.167 9.16699 96.5 27.5s36.5 39.5 36.5 63.5
c0 14.667 -8.33301 30.334 -25 47.001s-36 25 -58 25c-20 0 -40.333 -8 -61 -24l-32 32l112 160c-142 14.667 -249.833 53.5 -323.5 116.5s-120.834 136.667 -141.501 221s-31 179.833 -31 286.5z" />
    <glyph glyph-name="Egrave" unicode="&#xc8;" horiz-adv-x="1024" 
d="M623 1697c-15.333 15.333 -23 33 -23 53c0 20.667 8.66699 39.667 26 57s38 26 62 26c40.667 0 77.667 -24 111 -72l208 -272h-80zM176 0l272 1392h720c-10.667 -32 -16 -80 -16 -144c-34.667 14 -115.334 25.5 -242.001 34.5s-222 13.5 -286 13.5l-112 -496h352
c64 0 112 5.33301 144 16c-10.667 -42.667 -16 -90.667 -16 -144c-64 10.667 -229.333 16 -496 16l-112 -592c52.667 0 114.834 1.66699 186.501 5s131.167 6.66602 178.5 9.99902s112.333 9 195 17c-21.333 -64 -32 -106.667 -32 -128h-736z" />
    <glyph glyph-name="Eacute" unicode="&#xc9;" horiz-adv-x="1024" 
d="M593 1471l336 287.998c45.333 40.667 87.333 61 126 61c18 0 32.333 -4.66699 43 -14s16 -21.666 16 -36.999c0 -16.667 -7.16699 -34.167 -21.5 -52.5s-36.833 -36.166 -67.5 -53.499l-336 -192h-96zM176 -0.00195312l272 1392h720c-10.667 -32 -16 -80 -16 -144
c-34.667 14 -115.334 25.5 -242.001 34.5s-222 13.5 -286 13.5l-112 -496h352c64 0 112 5.33301 144 16c-10.667 -42.667 -16 -90.667 -16 -144c-64 10.667 -229.333 16 -496 16l-112 -592c52.667 0 114.834 1.66699 186.501 5s131.167 6.66602 178.5 9.99902
s112.333 9 195 17c-21.333 -64 -32 -106.667 -32 -128h-736z" />
    <glyph glyph-name="Ecircumflex" unicode="&#xca;" horiz-adv-x="1024" 
d="M496 1473l320 352h128l192 -352h-80l-192 224l-288 -224h-80zM176 0l272 1392h720c-10.667 -32 -16 -80 -16 -144c-34.667 14 -115.334 25.5 -242.001 34.5s-222 13.5 -286 13.5l-112 -496h352c64 0 112 5.33301 144 16c-10.667 -42.667 -16 -90.667 -16 -144
c-64 10.667 -229.333 16 -496 16l-112 -592c52.667 0 114.834 1.66699 186.501 5s131.167 6.66602 178.5 9.99902s112.333 9 195 17c-21.333 -64 -32 -106.667 -32 -128h-736z" />
    <glyph glyph-name="Edieresis" unicode="&#xcb;" horiz-adv-x="1024" 
d="M528 1631c7.33301 30.667 21.9971 54.334 43.9971 71.001s45.333 25 70 25c22.667 0 41.334 -7.83301 56.001 -23.5s22 -39.834 22 -72.501c-6.66699 -35.333 -20.667 -62.166 -42 -80.499s-44.666 -27.5 -69.999 -27.5c-23.333 0 -43.166 7.33301 -59.499 22
s-24.5 34 -24.5 58c0 5.33301 1.33301 14.666 4 27.999zM927.997 1631c7.33301 32 20.833 56 40.5 72s41.167 24 64.5 24c24.667 0 45.334 -8 62.001 -24s25 -40 25 -72c-4 -34 -17 -60.5 -39 -79.5s-47 -28.5 -75 -28.5c-22.667 0 -41.834 7 -57.501 21
s-23.5 33.333 -23.5 58c0 9.33301 1 19 3 29zM175.997 0l272 1392h720c-10.667 -32 -16 -80 -16 -144c-34.667 14 -115.334 25.5 -242.001 34.5s-222 13.5 -286 13.5l-112 -496h352c64 0 112 5.33301 144 16c-10.667 -42.667 -16 -90.667 -16 -144
c-64 10.667 -229.333 16 -496 16l-112 -592c52.667 0 114.834 1.66699 186.501 5s131.167 6.66602 178.5 9.99902s112.333 9 195 17c-21.333 -64 -32 -106.667 -32 -128h-736z" />
    <glyph glyph-name="Igrave" unicode="&#xcc;" horiz-adv-x="561" 
d="M192 0l272 1408c24 -8 54 -12 90 -12s70 4 102 12l-272 -1408c-32 8 -64 12 -96 12s-64 -4 -96 -12zM383 1697c-15.333 15.333 -23 33 -23 53c0 20.667 8.66699 39.667 26 57s38 26 62 26c40.667 0 77.667 -24 111 -72l208 -272h-80z" />
    <glyph glyph-name="Iacute" unicode="&#xcd;" horiz-adv-x="559" 
d="M192 0l272 1408c24 -8 54 -12 90 -12s70 4 102 12l-272 -1408c-32 8 -64 12 -96 12s-64 -4 -96 -12zM353 1488l336 287.998c45.333 40.667 87.333 61 126 61c18 0 32.333 -4.66699 43 -14s16 -21.666 16 -36.999c0 -16.667 -7.16699 -34.167 -21.5 -52.5
s-36.833 -36.166 -67.5 -53.499l-336 -192h-96z" />
    <glyph glyph-name="Icircumflex" unicode="&#xce;" horiz-adv-x="559" 
d="M240 1473l320 352h128l192 -352h-80l-192 224l-288 -224h-80zM192 0l272 1408c24 -8 54 -12 90 -12s70 4 102 12l-272 -1408c-32 8 -64 12 -96 12s-64 -4 -96 -12z" />
    <glyph glyph-name="Idieresis" unicode="&#xcf;" horiz-adv-x="560" 
d="M272 1648c7.33301 30.667 21.9971 54.334 43.9971 71.001s45.333 25 70 25c22.667 0 41.334 -7.83301 56.001 -23.5s22 -39.834 22 -72.501c-6.66699 -35.333 -20.667 -62.166 -42 -80.499s-44.666 -27.5 -69.999 -27.5c-23.333 0 -43.166 7.33301 -59.499 22
s-24.5 34 -24.5 58c0 5.33301 1.33301 14.666 4 27.999zM671.997 1648c7.33301 32 20.833 56 40.5 72s41.167 24 64.5 24c24.667 0 45.334 -8 62.001 -24s25 -40 25 -72c-4 -34 -17 -60.5 -39 -79.5s-47 -28.5 -75 -28.5c-22.667 0 -41.834 7 -57.501 21
s-23.5 33.333 -23.5 58c0 9.33301 1 19 3 29zM191.997 0l272 1408c24 -8 54 -12 90 -12s70 4 102 12l-272 -1408c-32 8 -64 12 -96 12s-64 -4 -96 -12z" />
    <glyph glyph-name="Eth" unicode="&#xd0;" horiz-adv-x="1583" 
 />
    <glyph glyph-name="Ntilde" unicode="&#xd1;" horiz-adv-x="1584" 
d="M753 1552c43.333 86.667 84.5 143.003 123.5 169.003s83.167 39 132.5 39c8 1.33301 14.333 2 19 2c20.667 0 42.167 -4.66699 64.5 -14s47.666 -22.833 75.999 -40.5s48.166 -29.334 59.499 -35.001s23.666 -8.5 36.999 -8.5c58.667 0 106.667 37.333 144 112h64
c-5.33301 -28 -20.666 -59.667 -45.999 -95s-56.833 -65.666 -94.5 -90.999s-76.167 -38 -115.5 -38c-24.667 0 -47.167 4.16699 -67.5 12.5s-43.166 20.666 -68.499 36.999s-46.333 28.166 -63 35.499s-35.667 11 -57 11c-20 0 -37.667 -4.33301 -53 -13
s-30.666 -20.834 -45.999 -36.501l-45 -46.5h-64zM176 0.00292969l288 1392h96l768 -1056l192 1056c24 -8 45.333 -12 64 -12s40 4 64 12l-272 -1392h-64l-784 1088l-208 -1088c-24 8 -48 12 -72 12s-48 -4 -72 -12z" />
    <glyph glyph-name="Ograve" unicode="&#xd2;" horiz-adv-x="1696" 
d="M928 1711c-15.333 15.333 -23 33 -23 53c0 20.667 8.66699 39.667 26 57s38 26 62 26c40.667 0 77.667 -24 111 -72l208 -272h-80zM208 656c16.667 89.333 48.998 178.831 96.998 268.498s112 172.5 192 248.5s176.5 136.833 289.5 182.5s240.167 68.5 381.5 68.5
c114 0 217.667 -23.167 311 -69.5s167 -113 221 -200s81 -187.167 81 -300.5c0 -33.333 -1.66699 -62 -5 -86c-19.333 -126 -55.666 -238.667 -108.999 -338s-121.166 -183.666 -203.499 -252.999s-175.5 -121.5 -279.5 -156.5s-216 -52.5 -336 -52.5
c-150 0 -273.5 24.667 -370.5 74s-167.5 116.833 -211.5 202.5s-66 182.834 -66 291.501c0 36 2.66699 76 8 120zM1552 703.998c19.333 68.667 29.001 133.005 29.001 193.005c0 97.333 -23 179.666 -69 246.999s-103.333 117.5 -172 150.5s-136.667 49.5 -204 49.5
c-130 0 -240.5 -28.833 -331.5 -86.5s-164 -131.334 -219 -221.001s-100.833 -189.834 -137.5 -300.501c-20 -70.667 -30 -143.334 -30 -218.001c0 -82.667 13.667 -159.167 41 -229.5s74.166 -128 140.499 -173s154.5 -67.5 264.5 -67.5c112 0 209.833 22.667 293.5 68
s152 102.666 205 171.999s94 139.5 123 210.5s51.167 139.5 66.5 205.5z" />
    <glyph glyph-name="Oacute" unicode="&#xd3;" horiz-adv-x="1696" 
d="M896 1488l336 287.998c45.333 40.667 87.333 61 126 61c18 0 32.333 -4.66699 43 -14s16 -21.666 16 -36.999c0 -16.667 -7.16699 -34.167 -21.5 -52.5s-36.833 -36.166 -67.5 -53.499l-336 -192h-96zM208 655.998c16.667 89.333 48.998 178.831 96.998 268.498
s112 172.5 192 248.5s176.5 136.833 289.5 182.5s240.167 68.5 381.5 68.5c114 0 217.667 -23.167 311 -69.5s167 -113 221 -200s81 -187.167 81 -300.5c0 -33.333 -1.66699 -62 -5 -86c-19.333 -126 -55.666 -238.667 -108.999 -338s-121.166 -183.666 -203.499 -252.999
s-175.5 -121.5 -279.5 -156.5s-216 -52.5 -336 -52.5c-150 0 -273.5 24.667 -370.5 74s-167.5 116.833 -211.5 202.5s-66 182.834 -66 291.501c0 36 2.66699 76 8 120zM1552 703.996c19.333 68.667 29.001 133.005 29.001 193.005c0 97.333 -23 179.666 -69 246.999
s-103.333 117.5 -172 150.5s-136.667 49.5 -204 49.5c-130 0 -240.5 -28.833 -331.5 -86.5s-164 -131.334 -219 -221.001s-100.833 -189.834 -137.5 -300.501c-20 -70.667 -30 -143.334 -30 -218.001c0 -82.667 13.667 -159.167 41 -229.5s74.166 -128 140.499 -173
s154.5 -67.5 264.5 -67.5c112 0 209.833 22.667 293.5 68s152 102.666 205 171.999s94 139.5 123 210.5s51.167 139.5 66.5 205.5z" />
    <glyph glyph-name="Ocircumflex" unicode="&#xd4;" horiz-adv-x="1696" 
d="M832 1487l320 352h128l192 -352h-80l-192 224l-288 -224h-80zM208 656c16.667 89.333 48.998 178.831 96.998 268.498s112 172.5 192 248.5s176.5 136.833 289.5 182.5s240.167 68.5 381.5 68.5c114 0 217.667 -23.167 311 -69.5s167 -113 221 -200
s81 -187.167 81 -300.5c0 -33.333 -1.66699 -62 -5 -86c-19.333 -126 -55.666 -238.667 -108.999 -338s-121.166 -183.666 -203.499 -252.999s-175.5 -121.5 -279.5 -156.5s-216 -52.5 -336 -52.5c-150 0 -273.5 24.667 -370.5 74s-167.5 116.833 -211.5 202.5
s-66 182.834 -66 291.501c0 36 2.66699 76 8 120zM1552 703.998c19.333 68.667 29.001 133.005 29.001 193.005c0 97.333 -23 179.666 -69 246.999s-103.333 117.5 -172 150.5s-136.667 49.5 -204 49.5c-130 0 -240.5 -28.833 -331.5 -86.5s-164 -131.334 -219 -221.001
s-100.833 -189.834 -137.5 -300.501c-20 -70.667 -30 -143.334 -30 -218.001c0 -82.667 13.667 -159.167 41 -229.5s74.166 -128 140.499 -173s154.5 -67.5 264.5 -67.5c112 0 209.833 22.667 293.5 68s152 102.666 205 171.999s94 139.5 123 210.5s51.167 139.5 66.5 205.5
z" />
    <glyph glyph-name="Otilde" unicode="&#xd5;" horiz-adv-x="1696" 
d="M833 1505c43.333 86.667 84.5 143.003 123.5 169.003s83.167 39 132.5 39c8 1.33301 14.333 2 19 2c20.667 0 42.167 -4.66699 64.5 -14s47.666 -22.833 75.999 -40.5s48.166 -29.334 59.499 -35.001s23.666 -8.5 36.999 -8.5c58.667 0 106.667 37.333 144 112h64
c-5.33301 -28 -20.666 -59.667 -45.999 -95s-56.833 -65.666 -94.5 -90.999s-76.167 -38 -115.5 -38c-24.667 0 -47.167 4.16699 -67.5 12.5s-43.166 20.666 -68.499 36.999s-46.333 28.166 -63 35.499s-35.667 11 -57 11c-20 0 -37.667 -4.33301 -53 -13
s-30.666 -20.834 -45.999 -36.501l-45 -46.5h-64zM208 656.003c16.667 89.333 48.998 178.831 96.998 268.498s112 172.5 192 248.5s176.5 136.833 289.5 182.5s240.167 68.5 381.5 68.5c114 0 217.667 -23.167 311 -69.5s167 -113 221 -200s81 -187.167 81 -300.5
c0 -33.333 -1.66699 -62 -5 -86c-19.333 -126 -55.666 -238.667 -108.999 -338s-121.166 -183.666 -203.499 -252.999s-175.5 -121.5 -279.5 -156.5s-216 -52.5 -336 -52.5c-150 0 -273.5 24.667 -370.5 74s-167.5 116.833 -211.5 202.5s-66 182.834 -66 291.501
c0 36 2.66699 76 8 120zM1552 704.001c19.333 68.667 29.001 133.005 29.001 193.005c0 97.333 -23 179.666 -69 246.999s-103.333 117.5 -172 150.5s-136.667 49.5 -204 49.5c-130 0 -240.5 -28.833 -331.5 -86.5s-164 -131.334 -219 -221.001
s-100.833 -189.834 -137.5 -300.501c-20 -70.667 -30 -143.334 -30 -218.001c0 -82.667 13.667 -159.167 41 -229.5s74.166 -128 140.499 -173s154.5 -67.5 264.5 -67.5c112 0 209.833 22.667 293.5 68s152 102.666 205 171.999s94 139.5 123 210.5s51.167 139.5 66.5 205.5
z" />
    <glyph glyph-name="Odieresis" unicode="&#xd6;" horiz-adv-x="1696" 
d="M913 1648c7.33301 30.667 21.9971 54.334 43.9971 71.001s45.333 25 70 25c22.667 0 41.334 -7.83301 56.001 -23.5s22 -39.834 22 -72.501c-6.66699 -35.333 -20.667 -62.166 -42 -80.499s-44.666 -27.5 -69.999 -27.5c-23.333 0 -43.166 7.33301 -59.499 22
s-24.5 34 -24.5 58c0 5.33301 1.33301 14.666 4 27.999zM1313 1648c7.33301 32 20.833 56 40.5 72s41.167 24 64.5 24c24.667 0 45.334 -8 62.001 -24s25 -40 25 -72c-4 -34 -17 -60.5 -39 -79.5s-47 -28.5 -75 -28.5c-22.667 0 -41.834 7 -57.501 21s-23.5 33.333 -23.5 58
c0 9.33301 1 19 3 29zM207.997 656c16.667 89.333 48.998 178.831 96.998 268.498s112 172.5 192 248.5s176.5 136.833 289.5 182.5s240.167 68.5 381.5 68.5c114 0 217.667 -23.167 311 -69.5s167 -113 221 -200s81 -187.167 81 -300.5c0 -33.333 -1.66699 -62 -5 -86
c-19.333 -126 -55.666 -238.667 -108.999 -338s-121.166 -183.666 -203.499 -252.999s-175.5 -121.5 -279.5 -156.5s-216 -52.5 -336 -52.5c-150 0 -273.5 24.667 -370.5 74s-167.5 116.833 -211.5 202.5s-66 182.834 -66 291.501c0 36 2.66699 76 8 120zM1552 703.998
c19.333 68.667 29.001 133.005 29.001 193.005c0 97.333 -23 179.666 -69 246.999s-103.333 117.5 -172 150.5s-136.667 49.5 -204 49.5c-130 0 -240.5 -28.833 -331.5 -86.5s-164 -131.334 -219 -221.001s-100.833 -189.834 -137.5 -300.501
c-20 -70.667 -30 -143.334 -30 -218.001c0 -82.667 13.667 -159.167 41 -229.5s74.166 -128 140.499 -173s154.5 -67.5 264.5 -67.5c112 0 209.833 22.667 293.5 68s152 102.666 205 171.999s94 139.5 123 210.5s51.167 139.5 66.5 205.5z" />
    <glyph glyph-name="Oslash" unicode="&#xd8;" horiz-adv-x="1696" 
d="M320 160c-85.333 99.333 -128.001 227.33 -128.001 383.997c0 124 25.667 240 77 348s120.833 201.833 208.5 281.5s186.167 141.334 295.5 185.001s219.666 65.5 330.999 65.5c114 0 206.667 -13.5 278 -40.5s133.333 -61.5 186 -103.5l224 208
c3.33301 -7.33301 8.33301 -15.666 15 -24.999s14.667 -17.333 24 -24s17.666 -11.667 24.999 -15l-224 -192c85.333 -99.333 128 -243.333 128 -432c-6.66699 -133.333 -40 -253.833 -100 -361.5s-135.333 -197.167 -226 -268.5s-189.167 -125.666 -295.5 -162.999
s-208.833 -56 -307.5 -56c-5.33301 0 -10.166 0.166992 -14.499 0.5s-9.83301 0.5 -16.5 0.5c-89.333 0 -174.666 15 -255.999 45s-140 63 -176 99l-208 -208c-21.333 21.333 -42.666 37.333 -63.999 48zM447.999 271.997l1008 912
c-30.667 51.333 -75.334 89.833 -134.001 115.5s-124.667 38.5 -198 38.5c-56 0 -113.667 -7.5 -173 -22.5s-114.666 -36.5 -165.999 -64.5s-94.333 -61 -129 -99c-50 -58 -94.167 -126.167 -132.5 -204.5s-67.833 -158.666 -88.5 -240.999s-31 -159.5 -31 -231.5
c0 -84.667 14.667 -152.334 44 -203.001zM479.999 191.997c106.667 -106.667 223.998 -159.998 351.998 -159.998c6.66699 -0.666992 16.667 -1 30 -1c56 0 113.667 11.667 173 35s113.5 52.666 162.5 87.999s87.167 69.333 114.5 102
c56.667 63.333 103.334 132.666 140.001 207.999s62.834 150 78.501 224s23.5 142.667 23.5 206c0 52.667 -4.33301 99 -13 139s-21 69 -37 87z" />
    <glyph glyph-name="Ugrave" unicode="&#xd9;" horiz-adv-x="1584" 
d="M912 1697c-15.333 15.333 -23 33 -23 53c0 20.667 8.66699 39.667 26 57s38 26 62 26c40.667 0 77.667 -24 111 -72l208 -272h-80zM288 528l160 880.003c32 -8 63.333 -12 94 -12s58 4 82 12l-160 -912c-4 -26.667 -6 -53.334 -6 -80.001c0 -46 6.5 -89.333 19.5 -130
s33.667 -77.334 62 -110.001s64.166 -58.5 107.499 -77.5s94.333 -30.5 153 -34.5c8 -0.666992 20 -1 36 -1c88 0 168.167 19.667 240.5 59s134.333 101 186 185s89.5 189.667 113.5 317l144 784c24 -8 45.333 -12 64 -12s40 4 64 12l-144 -768
c-23.333 -127.333 -58.5 -234.833 -105.5 -322.5s-102.833 -156.834 -167.5 -207.501s-135.5 -87 -212.5 -109s-160.5 -33 -250.5 -33c-128 4 -229.167 22.5 -303.5 55.5s-125.666 76.167 -153.999 129.5s-42.5 116.333 -42.5 189c0 47.333 6.66699 109.333 20 186z" />
    <glyph glyph-name="Uacute" unicode="&#xda;" horiz-adv-x="1584" 
d="M879 1488l336 287.998c45.333 40.667 87.333 61 126 61c18 0 32.333 -4.66699 43 -14s16 -21.666 16 -36.999c0 -16.667 -7.16699 -34.167 -21.5 -52.5s-36.833 -36.166 -67.5 -53.499l-336 -192h-96zM288 527.998l160 880.003c32 -8 63.333 -12 94 -12s58 4 82 12
l-160 -912c-4 -26.667 -6 -53.334 -6 -80.001c0 -46 6.5 -89.333 19.5 -130s33.667 -77.334 62 -110.001s64.166 -58.5 107.499 -77.5s94.333 -30.5 153 -34.5c8 -0.666992 20 -1 36 -1c88 0 168.167 19.667 240.5 59s134.333 101 186 185s89.5 189.667 113.5 317l144 784
c24 -8 45.333 -12 64 -12s40 4 64 12l-144 -768c-23.333 -127.333 -58.5 -234.833 -105.5 -322.5s-102.833 -156.834 -167.5 -207.501s-135.5 -87 -212.5 -109s-160.5 -33 -250.5 -33c-128 4 -229.167 22.5 -303.5 55.5s-125.666 76.167 -153.999 129.5
s-42.5 116.333 -42.5 189c0 47.333 6.66699 109.333 20 186z" />
    <glyph glyph-name="Ucircumflex" unicode="&#xdb;" horiz-adv-x="1584" 
d="M752 1487l320 352h128l192 -352h-80l-192 224l-288 -224h-80zM288 528l160 880.003c32 -8 63.333 -12 94 -12s58 4 82 12l-160 -912c-4 -26.667 -6 -53.334 -6 -80.001c0 -46 6.5 -89.333 19.5 -130s33.667 -77.334 62 -110.001s64.166 -58.5 107.499 -77.5
s94.333 -30.5 153 -34.5c8 -0.666992 20 -1 36 -1c88 0 168.167 19.667 240.5 59s134.333 101 186 185s89.5 189.667 113.5 317l144 784c24 -8 45.333 -12 64 -12s40 4 64 12l-144 -768c-23.333 -127.333 -58.5 -234.833 -105.5 -322.5s-102.833 -156.834 -167.5 -207.501
s-135.5 -87 -212.5 -109s-160.5 -33 -250.5 -33c-128 4 -229.167 22.5 -303.5 55.5s-125.666 76.167 -153.999 129.5s-42.5 116.333 -42.5 189c0 47.333 6.66699 109.333 20 186z" />
    <glyph glyph-name="Udieresis" unicode="&#xdc;" horiz-adv-x="1584" 
d="M800 1648c7.33301 30.667 21.9971 54.334 43.9971 71.001s45.333 25 70 25c22.667 0 41.334 -7.83301 56.001 -23.5s22 -39.834 22 -72.501c-6.66699 -35.333 -20.667 -62.166 -42 -80.499s-44.666 -27.5 -69.999 -27.5c-23.333 0 -43.166 7.33301 -59.499 22
s-24.5 34 -24.5 58c0 5.33301 1.33301 14.666 4 27.999zM1200 1648c7.33301 32 20.833 56 40.5 72s41.167 24 64.5 24c24.667 0 45.334 -8 62.001 -24s25 -40 25 -72c-4 -34 -17 -60.5 -39 -79.5s-47 -28.5 -75 -28.5c-22.667 0 -41.834 7 -57.501 21s-23.5 33.333 -23.5 58
c0 9.33301 1 19 3 29zM287.997 528l160 880.003c32 -8 63.333 -12 94 -12s58 4 82 12l-160 -912c-4 -26.667 -6 -53.334 -6 -80.001c0 -46 6.5 -89.333 19.5 -130s33.667 -77.334 62 -110.001s64.166 -58.5 107.499 -77.5s94.333 -30.5 153 -34.5c8 -0.666992 20 -1 36 -1
c88 0 168.167 19.667 240.5 59s134.333 101 186 185s89.5 189.667 113.5 317l144 784c24 -8 45.333 -12 64 -12s40 4 64 12l-144 -768c-23.333 -127.333 -58.5 -234.833 -105.5 -322.5s-102.833 -156.834 -167.5 -207.501s-135.5 -87 -212.5 -109s-160.5 -33 -250.5 -33
c-128 4 -229.167 22.5 -303.5 55.5s-125.666 76.167 -153.999 129.5s-42.5 116.333 -42.5 189c0 47.333 6.66699 109.333 20 186z" />
    <glyph glyph-name="Yacute" unicode="&#xdd;" horiz-adv-x="1247" 
 />
    <glyph glyph-name="Thorn" unicode="&#xde;" horiz-adv-x="1137" 
 />
    <glyph glyph-name="germandbls" unicode="&#xdf;" 
d="M128 0l191.995 960.007c29.333 154 75.833 275.5 139.5 364.5s128.834 149.167 195.501 180.5s125.667 47 177 47c86 0 153.5 -18.333 202.5 -55s77.5 -87.667 85.5 -153c0 -64.667 -15.333 -114.667 -46 -150s-85.667 -91 -165 -167s-119 -132.667 -119 -170
c0 -14 3.33301 -27.667 10 -41c18 -34 46.833 -64.667 86.5 -92l119.5 -81c40 -26.667 71.833 -56.667 95.5 -90s35.5 -77.333 35.5 -132c0 -4.66699 -0.166992 -8.33398 -0.5 -11.001s-0.5 -6 -0.5 -10c-4 -60.667 -23 -116.834 -57 -168.501
s-76.5 -95.834 -127.5 -132.501s-104.333 -65 -160 -85s-106.167 -30 -151.5 -30c-49.333 0 -90.5 4.83301 -123.5 14.5s-61.167 26.167 -84.5 49.5c42.667 42.667 69.334 80 80.001 112h16c48.667 -56 106.334 -84 173.001 -84c42.667 0 84.334 11.333 125.001 34
s73.5 53 98.5 91s37.5 78 37.5 120c0 38.667 -11.333 75.667 -34 111c-24 38 -57.167 71.5 -99.5 100.5l-106 71c-28.333 18.333 -51.833 41 -70.5 68s-28 64.5 -28 112.5c0 33.333 9.33301 64.166 28 92.499s46.667 59.166 84 92.499l112 99.5
c37.333 33 69.333 66.167 96 99.5c9.33301 12.667 18.333 33.667 27 63s13 58.666 13 87.999c0 94.667 -50.667 145.667 -152 153c-69.333 0 -125.666 -28.667 -168.999 -86s-74.833 -118.833 -94.5 -184.5s-38.5 -140.834 -56.5 -225.501l-208 -976
c-32 8 -61.333 12 -88 12s-56 -4 -88 -12z" />
    <glyph glyph-name="agrave" unicode="&#xe0;" horiz-adv-x="1024" 
d="M513 1296c-15.333 15.333 -23 33 -23 53c0 20.667 8.66699 39.667 26 57s38 26 62 26c40.667 0 77.667 -24 111 -72l208 -272h-80zM128 208c7.33301 71.333 28.667 128.333 64 171s78.833 74.334 130.5 95.001s107.167 35.667 166.5 45s115 17.666 167 24.999
c54 4 95.167 22.167 123.5 54.5s42.5 70.5 42.5 114.5c0 48.667 -16.167 91.334 -48.5 128.001s-76.833 55 -133.5 55c-47.333 0 -95.333 -11.167 -144 -33.5s-91.334 -59.166 -128.001 -110.499h-32l16 112c56.667 40.667 115.667 72.167 177 94.5
s119.666 33.5 174.999 33.5c48 0 94 -8.83301 138 -26.5s79.5 -45.167 106.5 -82.5s40.5 -84.666 40.5 -141.999c0 -32 -4.33301 -65.667 -13 -101l-96 -448c-2.66699 -18.667 -4 -36.334 -4 -53.001s2 -29.334 6 -38.001s10.167 -14.5 18.5 -17.5s19.5 -4.5 33.5 -4.5
c6.66699 0 12.834 0.166992 18.501 0.5s13.5 0.5 23.5 0.5l-16 -48c-42.667 -19.333 -83 -29 -121 -29c-40 0 -72.5 11.333 -97.5 34s-37.5 53 -37.5 91c-37.333 -52.667 -85.666 -89.834 -144.999 -111.501s-128.333 -32.5 -207 -32.5c-64 0 -117.333 21.333 -160 64
s-64 96 -64 160zM720.001 240l48.002 256.005c-6 -2 -42.333 -8.83301 -109 -20.5s-125.334 -26.834 -176.001 -45.501s-93.167 -47.334 -127.5 -86.001s-51.5 -89.334 -51.5 -152.001c0 -20.667 7.16699 -39.834 21.5 -57.501s33.5 -31.5 57.5 -41.5s51 -15 81 -15
c46.667 0 92.667 13.167 138 39.5s84.666 67.166 117.999 122.499z" />
    <glyph glyph-name="aacute" unicode="&#xe1;" horiz-adv-x="1024" 
d="M480 1088l336 287.998c45.333 40.667 87.333 61 126 61c18 0 32.333 -4.66699 43 -14s16 -21.666 16 -36.999c0 -16.667 -7.16699 -34.167 -21.5 -52.5s-36.833 -36.166 -67.5 -53.499l-336 -192h-96zM128 207.998c7.33301 71.333 28.667 128.333 64 171
s78.833 74.334 130.5 95.001s107.167 35.667 166.5 45s115 17.666 167 24.999c54 4 95.167 22.167 123.5 54.5s42.5 70.5 42.5 114.5c0 48.667 -16.167 91.334 -48.5 128.001s-76.833 55 -133.5 55c-47.333 0 -95.333 -11.167 -144 -33.5s-91.334 -59.166 -128.001 -110.499
h-32l16 112c56.667 40.667 115.667 72.167 177 94.5s119.666 33.5 174.999 33.5c48 0 94 -8.83301 138 -26.5s79.5 -45.167 106.5 -82.5s40.5 -84.666 40.5 -141.999c0 -32 -4.33301 -65.667 -13 -101l-96 -448c-2.66699 -18.667 -4 -36.334 -4 -53.001s2 -29.334 6 -38.001
s10.167 -14.5 18.5 -17.5s19.5 -4.5 33.5 -4.5c6.66699 0 12.834 0.166992 18.501 0.5s13.5 0.5 23.5 0.5l-16 -48c-42.667 -19.333 -83 -29 -121 -29c-40 0 -72.5 11.333 -97.5 34s-37.5 53 -37.5 91c-37.333 -52.667 -85.666 -89.834 -144.999 -111.501
s-128.333 -32.5 -207 -32.5c-64 0 -117.333 21.333 -160 64s-64 96 -64 160zM720.001 239.998l48.002 256.005c-6 -2 -42.333 -8.83301 -109 -20.5s-125.334 -26.834 -176.001 -45.501s-93.167 -47.334 -127.5 -86.001s-51.5 -89.334 -51.5 -152.001
c0 -20.667 7.16699 -39.834 21.5 -57.501s33.5 -31.5 57.5 -41.5s51 -15 81 -15c46.667 0 92.667 13.167 138 39.5s84.666 67.166 117.999 122.499z" />
    <glyph glyph-name="acircumflex" unicode="&#xe2;" horiz-adv-x="1024" 
d="M383 1088l320 352h128l192 -352h-80l-192 224l-288 -224h-80zM144 208c7.33301 71.333 28.667 128.333 64 171s78.833 74.334 130.5 95.001s107.167 35.667 166.5 45s115 17.666 167 24.999c54 4 95.167 22.167 123.5 54.5s42.5 70.5 42.5 114.5
c0 48.667 -16.167 91.334 -48.5 128.001s-76.833 55 -133.5 55c-47.333 0 -95.333 -11.167 -144 -33.5s-91.334 -59.166 -128.001 -110.499h-32l16 112c56.667 40.667 115.667 72.167 177 94.5s119.666 33.5 174.999 33.5c48 0 94 -8.83301 138 -26.5
s79.5 -45.167 106.5 -82.5s40.5 -84.666 40.5 -141.999c0 -32 -4.33301 -65.667 -13 -101l-96 -448c-2.66699 -18.667 -4 -36.334 -4 -53.001s2 -29.334 6 -38.001s10.167 -14.5 18.5 -17.5s19.5 -4.5 33.5 -4.5c6.66699 0 12.834 0.166992 18.501 0.5s13.5 0.5 23.5 0.5
l-16 -48c-42.667 -19.333 -83 -29 -121 -29c-40 0 -72.5 11.333 -97.5 34s-37.5 53 -37.5 91c-37.333 -52.667 -85.666 -89.834 -144.999 -111.501s-128.333 -32.5 -207 -32.5c-64 0 -117.333 21.333 -160 64s-64 96 -64 160zM736.001 240l48.002 256.005
c-6 -2 -42.333 -8.83301 -109 -20.5s-125.334 -26.834 -176.001 -45.501s-93.167 -47.334 -127.5 -86.001s-51.5 -89.334 -51.5 -152.001c0 -20.667 7.16699 -39.834 21.5 -57.501s33.5 -31.5 57.5 -41.5s51 -15 81 -15c46.667 0 92.667 13.167 138 39.5
s84.666 67.166 117.999 122.499z" />
    <glyph glyph-name="atilde" unicode="&#xe3;" horiz-adv-x="1024" 
d="M368 1089c43.333 86.667 84.5 143.003 123.5 169.003s83.167 39 132.5 39c8 1.33301 14.333 2 19 2c20.667 0 42.167 -4.66699 64.5 -14s47.666 -22.833 75.999 -40.5s48.166 -29.334 59.499 -35.001s23.666 -8.5 36.999 -8.5c58.667 0 106.667 37.333 144 112h64
c-5.33301 -28 -20.666 -59.667 -45.999 -95s-56.833 -65.666 -94.5 -90.999s-76.167 -38 -115.5 -38c-24.667 0 -47.167 4.16699 -67.5 12.5s-43.166 20.666 -68.499 36.999s-46.333 28.166 -63 35.499s-35.667 11 -57 11c-20 0 -37.667 -4.33301 -53 -13
s-30.666 -20.834 -45.999 -36.501l-45 -46.5h-64zM144 208.003c7.33301 71.333 28.667 128.333 64 171s78.833 74.334 130.5 95.001s107.167 35.667 166.5 45s115 17.666 167 24.999c54 4 95.167 22.167 123.5 54.5s42.5 70.5 42.5 114.5
c0 48.667 -16.167 91.334 -48.5 128.001s-76.833 55 -133.5 55c-47.333 0 -95.333 -11.167 -144 -33.5s-91.334 -59.166 -128.001 -110.499h-32l16 112c56.667 40.667 115.667 72.167 177 94.5s119.666 33.5 174.999 33.5c48 0 94 -8.83301 138 -26.5
s79.5 -45.167 106.5 -82.5s40.5 -84.666 40.5 -141.999c0 -32 -4.33301 -65.667 -13 -101l-96 -448c-2.66699 -18.667 -4 -36.334 -4 -53.001s2 -29.334 6 -38.001s10.167 -14.5 18.5 -17.5s19.5 -4.5 33.5 -4.5c6.66699 0 12.834 0.166992 18.501 0.5s13.5 0.5 23.5 0.5
l-16 -48c-42.667 -19.333 -83 -29 -121 -29c-40 0 -72.5 11.333 -97.5 34s-37.5 53 -37.5 91c-37.333 -52.667 -85.666 -89.834 -144.999 -111.501s-128.333 -32.5 -207 -32.5c-64 0 -117.333 21.333 -160 64s-64 96 -64 160zM736.001 240.003l48.002 256.005
c-6 -2 -42.333 -8.83301 -109 -20.5s-125.334 -26.834 -176.001 -45.501s-93.167 -47.334 -127.5 -86.001s-51.5 -89.334 -51.5 -152.001c0 -20.667 7.16699 -39.834 21.5 -57.501s33.5 -31.5 57.5 -41.5s51 -15 81 -15c46.667 0 92.667 13.167 138 39.5
s84.666 67.166 117.999 122.499z" />
    <glyph glyph-name="adieresis" unicode="&#xe4;" horiz-adv-x="1024" 
d="M464 1248c7.33301 30.667 21.9971 54.334 43.9971 71.001s45.333 25 70 25c22.667 0 41.334 -7.83301 56.001 -23.5s22 -39.834 22 -72.501c-6.66699 -35.333 -20.667 -62.166 -42 -80.499s-44.666 -27.5 -69.999 -27.5c-23.333 0 -43.166 7.33301 -59.499 22
s-24.5 34 -24.5 58c0 5.33301 1.33301 14.666 4 27.999zM863.997 1248c7.33301 32 20.833 56 40.5 72s41.167 24 64.5 24c24.667 0 45.334 -8 62.001 -24s25 -40 25 -72c-4 -34 -17 -60.5 -39 -79.5s-47 -28.5 -75 -28.5c-22.667 0 -41.834 7 -57.501 21
s-23.5 33.333 -23.5 58c0 9.33301 1 19 3 29zM143.997 208c7.33301 71.333 28.667 128.333 64 171s78.833 74.334 130.5 95.001s107.167 35.667 166.5 45s115 17.666 167 24.999c54 4 95.167 22.167 123.5 54.5s42.5 70.5 42.5 114.5c0 48.667 -16.167 91.334 -48.5 128.001
s-76.833 55 -133.5 55c-47.333 0 -95.333 -11.167 -144 -33.5s-91.334 -59.166 -128.001 -110.499h-32l16 112c56.667 40.667 115.667 72.167 177 94.5s119.666 33.5 174.999 33.5c48 0 94 -8.83301 138 -26.5s79.5 -45.167 106.5 -82.5s40.5 -84.666 40.5 -141.999
c0 -32 -4.33301 -65.667 -13 -101l-96 -448c-2.66699 -18.667 -4 -36.334 -4 -53.001s2 -29.334 6 -38.001s10.167 -14.5 18.5 -17.5s19.5 -4.5 33.5 -4.5c6.66699 0 12.834 0.166992 18.501 0.5s13.5 0.5 23.5 0.5l-16 -48c-42.667 -19.333 -83 -29 -121 -29
c-40 0 -72.5 11.333 -97.5 34s-37.5 53 -37.5 91c-37.333 -52.667 -85.666 -89.834 -144.999 -111.501s-128.333 -32.5 -207 -32.5c-64 0 -117.333 21.333 -160 64s-64 96 -64 160zM735.998 240l48.002 256.005c-6 -2 -42.333 -8.83301 -109 -20.5
s-125.334 -26.834 -176.001 -45.501s-93.167 -47.334 -127.5 -86.001s-51.5 -89.334 -51.5 -152.001c0 -20.667 7.16699 -39.834 21.5 -57.501s33.5 -31.5 57.5 -41.5s51 -15 81 -15c46.667 0 92.667 13.167 138 39.5s84.666 67.166 117.999 122.499z" />
    <glyph glyph-name="aring" unicode="&#xe5;" horiz-adv-x="1024" 
d="M561 1248c8.66699 70.667 39.667 127.002 93 169.002s111.333 63 174 63c48.667 0 88.334 -13.833 119.001 -41.5s46 -69.834 46 -126.501c-2.66699 -46.667 -17.834 -88.334 -45.501 -125.001s-61.167 -65 -100.5 -85s-79.666 -30 -120.999 -30
c-48.667 0 -88.334 14.833 -119.001 44.5s-46 73.5 -46 131.5zM897 1296c0 31.333 -9.16699 54.501 -27.5 69.501s-41.833 22.5 -70.5 22.5c-34 0 -65.167 -10.667 -93.5 -32s-44.5 -52 -48.5 -92c0 -36.667 9.5 -64.334 28.5 -83.001s43.167 -28 72.5 -28
c36.667 0 69 12.667 97 38s42 60.333 42 105zM144 208.003c7.33301 71.333 28.667 128.333 64 171s78.833 74.334 130.5 95.001s107.167 35.667 166.5 45s115 17.666 167 24.999c54 4 95.167 22.167 123.5 54.5s42.5 70.5 42.5 114.5c0 48.667 -16.167 91.334 -48.5 128.001
s-76.833 55 -133.5 55c-47.333 0 -95.333 -11.167 -144 -33.5s-91.334 -59.166 -128.001 -110.499h-32l16 112c56.667 40.667 115.667 72.167 177 94.5s119.666 33.5 174.999 33.5c48 0 94 -8.83301 138 -26.5s79.5 -45.167 106.5 -82.5s40.5 -84.666 40.5 -141.999
c0 -32 -4.33301 -65.667 -13 -101l-96 -448c-2.66699 -18.667 -4 -36.334 -4 -53.001s2 -29.334 6 -38.001s10.167 -14.5 18.5 -17.5s19.5 -4.5 33.5 -4.5c6.66699 0 12.834 0.166992 18.501 0.5s13.5 0.5 23.5 0.5l-16 -48c-42.667 -19.333 -83 -29 -121 -29
c-40 0 -72.5 11.333 -97.5 34s-37.5 53 -37.5 91c-37.333 -52.667 -85.666 -89.834 -144.999 -111.501s-128.333 -32.5 -207 -32.5c-64 0 -117.333 21.333 -160 64s-64 96 -64 160zM736.001 240.003l48.002 256.005c-6 -2 -42.333 -8.83301 -109 -20.5
s-125.334 -26.834 -176.001 -45.501s-93.167 -47.334 -127.5 -86.001s-51.5 -89.334 -51.5 -152.001c0 -20.667 7.16699 -39.834 21.5 -57.501s33.5 -31.5 57.5 -41.5s51 -15 81 -15c46.667 0 92.667 13.167 138 39.5s84.666 67.166 117.999 122.499z" />
    <glyph glyph-name="ae" unicode="&#xe6;" horiz-adv-x="1584" 
d="M80 192c7.33301 92 36.8291 160.334 88.4961 205.001s124.5 76.334 218.5 95.001s172.833 33.5 236.5 44.5s111.834 29.5 144.501 55.5c24 48 36 91.333 36 130c0 33.333 -8.66699 62 -26 86s-41.166 42 -71.499 54s-63.166 18 -98.499 18
c-54.667 0 -102.667 -8.33301 -144 -25s-84 -51 -128 -103h-32v96c45.333 45.333 102.833 80.666 172.5 105.999s134.834 38 195.501 38c38.667 0 76.167 -5.66699 112.5 -17s69.666 -29.333 99.999 -54s55.5 -54.334 75.5 -89.001c50.667 58 107.5 99.167 170.5 123.5
s123.5 36.5 181.5 36.5c221.333 -9.33301 332 -114 332 -314c0 -58.667 -9.33301 -124.667 -28 -198h-688c-15.333 -45.333 -23 -89 -23 -131c0 -53.333 11.833 -100.333 35.5 -141s55.334 -72.167 95.001 -94.5s83.834 -33.5 132.501 -33.5c73.333 0 136.5 9.5 189.5 28.5
s107.167 52.167 162.5 99.5l-32 -112c-48.667 -38 -104.5 -67.833 -167.5 -89.5s-126.5 -32.5 -190.5 -32.5c-82 0 -156.833 18.167 -224.5 54.5s-118.834 90.833 -153.501 163.5c-52 -69.333 -111 -124 -177 -164s-140.333 -60 -223 -60
c-66.667 0 -128.667 19.167 -186 57.5s-86 93.833 -86 166.5zM1456 576.001c16 32.667 24.001 68.667 24.001 108c0 38 -7.83301 74.667 -23.5 110s-38.834 63.833 -69.501 85.5s-66.334 32.5 -107.001 32.5c-49.333 0 -98.666 -20.167 -147.999 -60.5
s-90.333 -88 -123 -143s-49 -99.167 -49 -132.5h496zM703.997 256.001l48 240c-20.667 -7.33301 -63.834 -17 -129.501 -29s-121.334 -25.333 -167.001 -40s-85 -38.167 -118 -70.5s-49.5 -76.5 -49.5 -132.5c0 -46.667 13.833 -82 41.5 -106s62.834 -36 105.501 -36
c52.667 0 105.334 16 158.001 48s89.667 74 111 126z" />
    <glyph glyph-name="ccedilla" unicode="&#xe7;" horiz-adv-x="1024" 
d="M160 352c0 118 19.1758 218.499 57.5088 301.499s89.166 149.5 152.499 199.5s130.666 85.667 201.999 107s142 32 212 32c65.333 0 127.666 -8.5 186.999 -25.5s103.666 -35.167 132.999 -54.5l-80 -160h-16c-10.667 26.667 -26.834 52.5 -48.501 77.5
s-47.334 45 -77.001 60s-62.5 22.5 -98.5 22.5c-84 0 -170 -32.667 -258 -98s-146 -182 -174 -350c-4.66699 -25.333 -7 -49 -7 -71c0 -84.667 24.167 -160.667 72.5 -228s117.166 -101 206.499 -101c56.667 0 107.667 9.5 153 28.5s95.666 52.167 150.999 99.5l16 -16
l-16 -96c-44.667 -30 -87.334 -51.833 -128.001 -65.5s-78.5 -22.167 -113.5 -25.5s-77.167 -5 -126.5 -5l-80 -96c23.333 4.66699 45.333 7 66 7c94.667 0 142 -45 142 -135c0 -65.333 -31.333 -113.666 -94 -144.999s-132.667 -47 -210 -47c-42.667 0 -96 10.667 -160 32
l48 80c40.667 -16 83.334 -24 128.001 -24c85.333 0 128 29.333 128 88c0 15.333 -5.33301 30 -16 44s-27.334 21 -50.001 21c-18 0 -38.667 -5.66699 -62 -17l-48 32l112 160c-64 14.667 -119 38.167 -165 70.5s-81 71 -105 116s-36 94.5 -36 148.5
c0 7.33301 0.666992 18.333 2 33z" />
    <glyph glyph-name="egrave" unicode="&#xe8;" horiz-adv-x="1024" 
d="M529 1296c-15.333 15.333 -23 33 -23 53c0 20.667 8.66699 39.667 26 57s38 26 62 26c40.667 0 77.667 -24 111 -72l208 -272h-80zM160 368c0 123.333 24.999 232.667 74.999 328s116.333 168.5 199 219.5s172.667 76.5 270 76.5c63.333 0 117.5 -7.66699 162.5 -23
s81.5 -37.333 109.5 -66s49 -63.667 63 -105s21 -88.666 21 -141.999c0 -52.667 -6.66699 -111.334 -20 -176.001c-2 0 -37.667 1.5 -107 4.5s-154.5 5.66699 -255.5 8s-209.5 3.5 -325.5 3.5c-12.667 -44 -19 -88 -19 -132c0 -82.667 23.167 -150.834 69.5 -204.501
s111.5 -80.5 195.5 -80.5c11.333 0 20 0.333008 26 1c47.333 4.66699 90.5 14.167 129.5 28.5s70.5 29.333 94.5 45s56 39.167 96 70.5l-16 -112c-34.667 -30 -74.5 -54.667 -119.5 -74s-90.667 -33.166 -137 -41.499s-88.833 -12.5 -127.5 -12.5
c-55.333 0 -106.166 6.33301 -152.499 19s-86.5 33 -120.5 61s-61 67.167 -81 117.5s-30 112.5 -30 186.5zM879.999 576.001c15.333 34.667 23 77.3311 23 127.998c0 61.333 -13.667 114 -41 158s-69.333 66 -126 66c-71.333 0 -133.833 -22.667 -187.5 -68
s-95.167 -95.666 -124.5 -150.999s-48 -99.666 -56 -132.999h512z" />
    <glyph glyph-name="eacute" unicode="&#xe9;" horiz-adv-x="1024" 
d="M513 1072l336 287.998c45.333 40.667 87.333 61 126 61c18 0 32.333 -4.66699 43 -14s16 -21.666 16 -36.999c0 -16.667 -7.16699 -34.167 -21.5 -52.5s-36.833 -36.166 -67.5 -53.499l-336 -192h-96zM160 367.998c0 123.333 24.999 232.667 74.999 328
s116.333 168.5 199 219.5s172.667 76.5 270 76.5c63.333 0 117.5 -7.66699 162.5 -23s81.5 -37.333 109.5 -66s49 -63.667 63 -105s21 -88.666 21 -141.999c0 -52.667 -6.66699 -111.334 -20 -176.001c-2 0 -37.667 1.5 -107 4.5s-154.5 5.66699 -255.5 8
s-209.5 3.5 -325.5 3.5c-12.667 -44 -19 -88 -19 -132c0 -82.667 23.167 -150.834 69.5 -204.501s111.5 -80.5 195.5 -80.5c11.333 0 20 0.333008 26 1c47.333 4.66699 90.5 14.167 129.5 28.5s70.5 29.333 94.5 45s56 39.167 96 70.5l-16 -112
c-34.667 -30 -74.5 -54.667 -119.5 -74s-90.667 -33.166 -137 -41.499s-88.833 -12.5 -127.5 -12.5c-55.333 0 -106.166 6.33301 -152.499 19s-86.5 33 -120.5 61s-61 67.167 -81 117.5s-30 112.5 -30 186.5zM879.999 575.999c15.333 34.667 23 77.3311 23 127.998
c0 61.333 -13.667 114 -41 158s-69.333 66 -126 66c-71.333 0 -133.833 -22.667 -187.5 -68s-95.167 -95.666 -124.5 -150.999s-48 -99.666 -56 -132.999h512z" />
    <glyph glyph-name="ecircumflex" unicode="&#xea;" horiz-adv-x="1024" 
d="M416 1088l320 352h128l192 -352h-80l-192 224l-288 -224h-80zM160 368c0 123.333 24.999 232.667 74.999 328s116.333 168.5 199 219.5s172.667 76.5 270 76.5c63.333 0 117.5 -7.66699 162.5 -23s81.5 -37.333 109.5 -66s49 -63.667 63 -105s21 -88.666 21 -141.999
c0 -52.667 -6.66699 -111.334 -20 -176.001c-2 0 -37.667 1.5 -107 4.5s-154.5 5.66699 -255.5 8s-209.5 3.5 -325.5 3.5c-12.667 -44 -19 -88 -19 -132c0 -82.667 23.167 -150.834 69.5 -204.501s111.5 -80.5 195.5 -80.5c11.333 0 20 0.333008 26 1
c47.333 4.66699 90.5 14.167 129.5 28.5s70.5 29.333 94.5 45s56 39.167 96 70.5l-16 -112c-34.667 -30 -74.5 -54.667 -119.5 -74s-90.667 -33.166 -137 -41.499s-88.833 -12.5 -127.5 -12.5c-55.333 0 -106.166 6.33301 -152.499 19s-86.5 33 -120.5 61
s-61 67.167 -81 117.5s-30 112.5 -30 186.5zM879.999 576.001c15.333 34.667 23 77.3311 23 127.998c0 61.333 -13.667 114 -41 158s-69.333 66 -126 66c-71.333 0 -133.833 -22.667 -187.5 -68s-95.167 -95.666 -124.5 -150.999s-48 -99.666 -56 -132.999h512z" />
    <glyph glyph-name="edieresis" unicode="&#xeb;" horiz-adv-x="1024" 
d="M448 1232c7.33301 30.667 21.9971 54.334 43.9971 71.001s45.333 25 70 25c22.667 0 41.334 -7.83301 56.001 -23.5s22 -39.834 22 -72.501c-6.66699 -35.333 -20.667 -62.166 -42 -80.499s-44.666 -27.5 -69.999 -27.5c-23.333 0 -43.166 7.33301 -59.499 22
s-24.5 34 -24.5 58c0 5.33301 1.33301 14.666 4 27.999zM847.997 1232c7.33301 32 20.833 56 40.5 72s41.167 24 64.5 24c24.667 0 45.334 -8 62.001 -24s25 -40 25 -72c-4 -34 -17 -60.5 -39 -79.5s-47 -28.5 -75 -28.5c-22.667 0 -41.834 7 -57.501 21
s-23.5 33.333 -23.5 58c0 9.33301 1 19 3 29zM159.997 368c0 123.333 24.999 232.667 74.999 328s116.333 168.5 199 219.5s172.667 76.5 270 76.5c63.333 0 117.5 -7.66699 162.5 -23s81.5 -37.333 109.5 -66s49 -63.667 63 -105s21 -88.666 21 -141.999
c0 -52.667 -6.66699 -111.334 -20 -176.001c-2 0 -37.667 1.5 -107 4.5s-154.5 5.66699 -255.5 8s-209.5 3.5 -325.5 3.5c-12.667 -44 -19 -88 -19 -132c0 -82.667 23.167 -150.834 69.5 -204.501s111.5 -80.5 195.5 -80.5c11.333 0 20 0.333008 26 1
c47.333 4.66699 90.5 14.167 129.5 28.5s70.5 29.333 94.5 45s56 39.167 96 70.5l-16 -112c-34.667 -30 -74.5 -54.667 -119.5 -74s-90.667 -33.166 -137 -41.499s-88.833 -12.5 -127.5 -12.5c-55.333 0 -106.166 6.33301 -152.499 19s-86.5 33 -120.5 61
s-61 67.167 -81 117.5s-30 112.5 -30 186.5zM879.996 576.001c15.333 34.667 23 77.3311 23 127.998c0 61.333 -13.667 114 -41 158s-69.333 66 -126 66c-71.333 0 -133.833 -22.667 -187.5 -68s-95.167 -95.666 -124.5 -150.999s-48 -99.666 -56 -132.999h512z" />
    <glyph glyph-name="igrave" unicode="&#xec;" horiz-adv-x="560" 
d="M304 1296c-15.333 15.333 -23 33 -23 53c0 20.667 8.66699 39.667 26 57s38 26 62 26c40.667 0 77.667 -24 111 -72l208 -272h-80zM192 0l192 992c32 -8 61.333 -12 88 -12s56 4 88 12l-192 -992c-32 8 -61.333 12 -88 12s-56 -4 -88 -12z" />
    <glyph glyph-name="iacute" unicode="&#xed;" horiz-adv-x="560" 
d="M287 1088l336 287.998c45.333 40.667 87.333 61 126 61c18 0 32.333 -4.66699 43 -14s16 -21.666 16 -36.999c0 -16.667 -7.16699 -34.167 -21.5 -52.5s-36.833 -36.166 -67.5 -53.499l-336 -192h-96zM192 -0.00195312l192 992c32 -8 61.333 -12 88 -12s56 4 88 12
l-192 -992c-32 8 -61.333 12 -88 12s-56 -4 -88 -12z" />
    <glyph glyph-name="icircumflex" unicode="&#xee;" horiz-adv-x="560" 
d="M144 1072l320 352h128l192 -352h-80l-192 224l-288 -224h-80zM192 0l192 992c32 -8 61.333 -12 88 -12s56 4 88 12l-192 -992c-32 8 -61.333 12 -88 12s-56 -4 -88 -12z" />
    <glyph glyph-name="idieresis" unicode="&#xef;" horiz-adv-x="560" 
d="M225 1232c7.33301 30.667 21.9971 54.334 43.9971 71.001s45.333 25 70 25c22.667 0 41.334 -7.83301 56.001 -23.5s22 -39.834 22 -72.501c-6.66699 -35.333 -20.667 -62.166 -42 -80.499s-44.666 -27.5 -69.999 -27.5c-23.333 0 -43.166 7.33301 -59.499 22
s-24.5 34 -24.5 58c0 5.33301 1.33301 14.666 4 27.999zM624.997 1232c7.33301 32 20.833 56 40.5 72s41.167 24 64.5 24c24.667 0 45.334 -8 62.001 -24s25 -40 25 -72c-4 -34 -17 -60.5 -39 -79.5s-47 -28.5 -75 -28.5c-22.667 0 -41.834 7 -57.501 21
s-23.5 33.333 -23.5 58c0 9.33301 1 19 3 29zM191.997 0l192 992c32 -8 61.333 -12 88 -12s56 4 88 12l-192 -992c-32 8 -61.333 12 -88 12s-56 -4 -88 -12z" />
    <glyph glyph-name="eth" unicode="&#xf0;" horiz-adv-x="1137" 
 />
    <glyph glyph-name="ntilde" unicode="&#xf1;" 
d="M448 1136c43.333 86.667 84.5 143.003 123.5 169.003s83.167 39 132.5 39c8 1.33301 14.333 2 19 2c20.667 0 42.167 -4.66699 64.5 -14s47.666 -22.833 75.999 -40.5s48.166 -29.334 59.499 -35.001s23.666 -8.5 36.999 -8.5c58.667 0 106.667 37.333 144 112h64
c-5.33301 -28 -20.666 -59.667 -45.999 -95s-56.833 -65.666 -94.5 -90.999s-76.167 -38 -115.5 -38c-24.667 0 -47.167 4.16699 -67.5 12.5s-43.166 20.666 -68.499 36.999s-46.333 28.166 -63 35.499s-35.667 11 -57 11c-20 0 -37.667 -4.33301 -53 -13
s-30.666 -20.834 -45.999 -36.501l-45 -46.5h-64zM160 0.00292969l192.001 992c32 -8 64 -12 96 -12s64 4 96 12l-32 -160c82 117.333 204.667 176 368 176c55.333 0 102.333 -9 141 -27s68.167 -45.333 88.5 -82s30.5 -83.667 30.5 -141
c0 -42.667 -6.66699 -92.667 -20 -150l-112 -608c-24 8 -54 12 -90 12s-70 -4 -102 -12l128 656c4 22.667 6 43.667 6 63c0 60 -16 105 -48 135s-73 45 -123 45c-66.667 0 -130.834 -24.667 -192.501 -74s-102.5 -116.333 -122.5 -201l-128 -624c-24 8 -51.333 12 -82 12
s-62 -4 -94 -12z" />
    <glyph glyph-name="ograve" unicode="&#xf2;" 
d="M592 1296c-15.333 15.333 -23 33 -23 53c0 20.667 8.66699 39.667 26 57s38 26 62 26c40.667 0 77.667 -24 111 -72l208 -272h-80zM160 496c16.667 70.667 42.1689 137.503 76.502 200.503s77.166 119.167 128.499 168.5s111.166 88.166 179.499 116.499
s142.833 42.5 223.5 42.5c136 0 237.5 -36.333 304.5 -109s100.5 -165.334 100.5 -278.001c0 -22.667 -1.66699 -48.334 -5 -77.001c-20 -150 -81.333 -283.5 -184 -400.5s-254.667 -175.5 -456 -175.5c-56.667 0 -114.5 14 -173.5 42s-108.5 71 -148.5 129
s-60 129.667 -60 215c0 42 4.66699 84 14 126zM976.002 576.003c2.66699 40 4 68.668 4 86.001c0 89.333 -15.833 158.666 -47.5 207.999s-86.5 74 -164.5 74c-118.667 0 -208.334 -43.667 -269.001 -131s-109.667 -193 -147 -317c-14.667 -52.667 -22 -101.667 -22 -147
c0 -54.667 9.5 -103.5 28.5 -146.5s47 -76.833 84 -101.5s81.5 -37 133.5 -37c48 0 94.833 12.833 140.5 38.5s87.834 62.5 126.501 110.5s69.5 103 92.5 165s36.5 128 40.5 198z" />
    <glyph glyph-name="oacute" unicode="&#xf3;" 
d="M576 1088l336 287.998c45.333 40.667 87.333 61 126 61c18 0 32.333 -4.66699 43 -14s16 -21.666 16 -36.999c0 -16.667 -7.16699 -34.167 -21.5 -52.5s-36.833 -36.166 -67.5 -53.499l-336 -192h-96zM160 495.998c16.667 70.667 42.1689 137.503 76.502 200.503
s77.166 119.167 128.499 168.5s111.166 88.166 179.499 116.499s142.833 42.5 223.5 42.5c136 0 237.5 -36.333 304.5 -109s100.5 -165.334 100.5 -278.001c0 -22.667 -1.66699 -48.334 -5 -77.001c-20 -150 -81.333 -283.5 -184 -400.5s-254.667 -175.5 -456 -175.5
c-56.667 0 -114.5 14 -173.5 42s-108.5 71 -148.5 129s-60 129.667 -60 215c0 42 4.66699 84 14 126zM976.002 576.001c2.66699 40 4 68.668 4 86.001c0 89.333 -15.833 158.666 -47.5 207.999s-86.5 74 -164.5 74c-118.667 0 -208.334 -43.667 -269.001 -131
s-109.667 -193 -147 -317c-14.667 -52.667 -22 -101.667 -22 -147c0 -54.667 9.5 -103.5 28.5 -146.5s47 -76.833 84 -101.5s81.5 -37 133.5 -37c48 0 94.833 12.833 140.5 38.5s87.834 62.5 126.501 110.5s69.5 103 92.5 165s36.5 128 40.5 198z" />
    <glyph glyph-name="ocircumflex" unicode="&#xf4;" 
d="M463 1088l320 352h128l192 -352h-80l-192 224l-288 -224h-80zM160 496c16.667 70.667 42.1689 137.503 76.502 200.503s77.166 119.167 128.499 168.5s111.166 88.166 179.499 116.499s142.833 42.5 223.5 42.5c136 0 237.5 -36.333 304.5 -109
s100.5 -165.334 100.5 -278.001c0 -22.667 -1.66699 -48.334 -5 -77.001c-20 -150 -81.333 -283.5 -184 -400.5s-254.667 -175.5 -456 -175.5c-56.667 0 -114.5 14 -173.5 42s-108.5 71 -148.5 129s-60 129.667 -60 215c0 42 4.66699 84 14 126zM976.002 576.003
c2.66699 40 4 68.668 4 86.001c0 89.333 -15.833 158.666 -47.5 207.999s-86.5 74 -164.5 74c-118.667 0 -208.334 -43.667 -269.001 -131s-109.667 -193 -147 -317c-14.667 -52.667 -22 -101.667 -22 -147c0 -54.667 9.5 -103.5 28.5 -146.5s47 -76.833 84 -101.5
s81.5 -37 133.5 -37c48 0 94.833 12.833 140.5 38.5s87.834 62.5 126.501 110.5s69.5 103 92.5 165s36.5 128 40.5 198z" />
    <glyph glyph-name="otilde" unicode="&#xf5;" 
d="M417 1089c43.333 86.667 84.5 143.003 123.5 169.003s83.167 39 132.5 39c8 1.33301 14.333 2 19 2c20.667 0 42.167 -4.66699 64.5 -14s47.666 -22.833 75.999 -40.5s48.166 -29.334 59.499 -35.001s23.666 -8.5 36.999 -8.5c58.667 0 106.667 37.333 144 112h64
c-5.33301 -28 -20.666 -59.667 -45.999 -95s-56.833 -65.666 -94.5 -90.999s-76.167 -38 -115.5 -38c-24.667 0 -47.167 4.16699 -67.5 12.5s-43.166 20.666 -68.499 36.999s-46.333 28.166 -63 35.499s-35.667 11 -57 11c-20 0 -37.667 -4.33301 -53 -13
s-30.666 -20.834 -45.999 -36.501l-45 -46.5h-64zM160 496.003c16.667 70.667 42.1689 137.503 76.502 200.503s77.166 119.167 128.499 168.5s111.166 88.166 179.499 116.499s142.833 42.5 223.5 42.5c136 0 237.5 -36.333 304.5 -109s100.5 -165.334 100.5 -278.001
c0 -22.667 -1.66699 -48.334 -5 -77.001c-20 -150 -81.333 -283.5 -184 -400.5s-254.667 -175.5 -456 -175.5c-56.667 0 -114.5 14 -173.5 42s-108.5 71 -148.5 129s-60 129.667 -60 215c0 42 4.66699 84 14 126zM976.002 576.006c2.66699 40 4 68.668 4 86.001
c0 89.333 -15.833 158.666 -47.5 207.999s-86.5 74 -164.5 74c-118.667 0 -208.334 -43.667 -269.001 -131s-109.667 -193 -147 -317c-14.667 -52.667 -22 -101.667 -22 -147c0 -54.667 9.5 -103.5 28.5 -146.5s47 -76.833 84 -101.5s81.5 -37 133.5 -37
c48 0 94.833 12.833 140.5 38.5s87.834 62.5 126.501 110.5s69.5 103 92.5 165s36.5 128 40.5 198z" />
    <glyph glyph-name="odieresis" unicode="&#xf6;" 
d="M511 1248c7.33301 30.667 21.9971 54.334 43.9971 71.001s45.333 25 70 25c22.667 0 41.334 -7.83301 56.001 -23.5s22 -39.834 22 -72.501c-6.66699 -35.333 -20.667 -62.166 -42 -80.499s-44.666 -27.5 -69.999 -27.5c-23.333 0 -43.166 7.33301 -59.499 22
s-24.5 34 -24.5 58c0 5.33301 1.33301 14.666 4 27.999zM910.997 1248c7.33301 32 20.833 56 40.5 72s41.167 24 64.5 24c24.667 0 45.334 -8 62.001 -24s25 -40 25 -72c-4 -34 -17 -60.5 -39 -79.5s-47 -28.5 -75 -28.5c-22.667 0 -41.834 7 -57.501 21
s-23.5 33.333 -23.5 58c0 9.33301 1 19 3 29zM159.997 496c16.667 70.667 42.1689 137.503 76.502 200.503s77.166 119.167 128.499 168.5s111.166 88.166 179.499 116.499s142.833 42.5 223.5 42.5c136 0 237.5 -36.333 304.5 -109s100.5 -165.334 100.5 -278.001
c0 -22.667 -1.66699 -48.334 -5 -77.001c-20 -150 -81.333 -283.5 -184 -400.5s-254.667 -175.5 -456 -175.5c-56.667 0 -114.5 14 -173.5 42s-108.5 71 -148.5 129s-60 129.667 -60 215c0 42 4.66699 84 14 126zM975.999 576.003c2.66699 40 4 68.668 4 86.001
c0 89.333 -15.833 158.666 -47.5 207.999s-86.5 74 -164.5 74c-118.667 0 -208.334 -43.667 -269.001 -131s-109.667 -193 -147 -317c-14.667 -52.667 -22 -101.667 -22 -147c0 -54.667 9.5 -103.5 28.5 -146.5s47 -76.833 84 -101.5s81.5 -37 133.5 -37
c48 0 94.833 12.833 140.5 38.5s87.834 62.5 126.501 110.5s69.5 103 92.5 165s36.5 128 40.5 198z" />
    <glyph glyph-name="divide" unicode="&#xf7;" horiz-adv-x="1233" 
 />
    <glyph glyph-name="oslash" unicode="&#xf8;" 
d="M208 144c-28 28 -45.668 62.332 -53.001 102.999s-11 86.334 -11 137.001c5.33301 112 34.666 214.333 87.999 307s127.833 166 223.5 220s205.167 81 328.5 81c32 0 66.167 -4.83301 102.5 -14.5s68.333 -21.667 96 -36s46.834 -29.5 57.501 -45.5l192 176
c10.667 -21.333 26.667 -42.666 48 -63.999l-176 -160c52.667 -63.333 79 -142.333 79 -237c0 -41.333 -5 -85 -15 -131c-8.66699 -50.667 -29 -105.5 -61 -164.5s-74.5 -115 -127.5 -168s-115.333 -96.167 -187 -129.5s-149.167 -50 -232.5 -50
c-65.333 0 -125.166 11.5 -179.499 34.5s-95.833 48.833 -124.5 77.5l-192 -176c-10.667 21.333 -26.667 42.666 -48 63.999zM351.999 271.999l592.002 543.997c-9.33301 18.667 -31 39.334 -65 62.001s-65.667 34 -95 34c-64 0 -123.333 -17.5 -178 -52.5
s-101.834 -80.5 -141.501 -136.5s-70.334 -115.667 -92.001 -179s-32.5 -123.666 -32.5 -180.999c0 -33.333 4 -63.666 12 -90.999zM784.001 143.996c76 70.667 128.834 146.166 158.501 226.499s44.5 159.833 44.5 238.5c0 42 -3.66699 84.333 -11 127l-608 -544
c15.333 -45.333 41.166 -78.666 77.499 -99.999s77.833 -32 124.5 -32c43.333 0 84.833 8 124.5 24s69.5 36 89.5 60z" />
    <glyph glyph-name="ugrave" unicode="&#xf9;" 
d="M543 1296c-15.333 15.333 -23 33 -23 53c0 20.667 8.66699 39.667 26 57s38 26 62 26c40.667 0 77.667 -24 111 -72l208 -272h-80zM192 288l128 688.001c32 -8 61.333 -12 88 -12s56 4 88 12l-112 -624c-4 -26 -6 -50 -6 -72c0 -66 16 -115.5 48 -148.5
s73 -49.5 123 -49.5c41.333 0 83.833 10.5 127.5 31.5s81 49.667 112 86s50.833 76.5 59.5 120.5l128 656c32 -8 61.333 -12 88 -12s56 4 88 12l-192 -976c-32 8 -61.333 12 -88 12s-56 -4 -88 -12l32 144c-41.333 -41.333 -77.333 -73 -108 -95s-66 -38.333 -106 -49
s-91.333 -16 -154 -16c-172 0 -258 86 -258 258c0 9.33301 0.666992 24.666 2 45.999z" />
    <glyph glyph-name="uacute" unicode="&#xfa;" 
d="M513 1072l336 287.998c45.333 40.667 87.333 61 126 61c18 0 32.333 -4.66699 43 -14s16 -21.666 16 -36.999c0 -16.667 -7.16699 -34.167 -21.5 -52.5s-36.833 -36.166 -67.5 -53.499l-336 -192h-96zM192 287.998l128 688.001c32 -8 61.333 -12 88 -12s56 4 88 12
l-112 -624c-4 -26 -6 -50 -6 -72c0 -66 16 -115.5 48 -148.5s73 -49.5 123 -49.5c41.333 0 83.833 10.5 127.5 31.5s81 49.667 112 86s50.833 76.5 59.5 120.5l128 656c32 -8 61.333 -12 88 -12s56 4 88 12l-192 -976c-32 8 -61.333 12 -88 12s-56 -4 -88 -12l32 144
c-41.333 -41.333 -77.333 -73 -108 -95s-66 -38.333 -106 -49s-91.333 -16 -154 -16c-172 0 -258 86 -258 258c0 9.33301 0.666992 24.666 2 45.999z" />
    <glyph glyph-name="ucircumflex" unicode="&#xfb;" 
d="M416 1088l320 352h128l192 -352h-80l-192 224l-288 -224h-80zM192 288l128 688.001c32 -8 61.333 -12 88 -12s56 4 88 12l-112 -624c-4 -26 -6 -50 -6 -72c0 -66 16 -115.5 48 -148.5s73 -49.5 123 -49.5c41.333 0 83.833 10.5 127.5 31.5s81 49.667 112 86
s50.833 76.5 59.5 120.5l128 656c32 -8 61.333 -12 88 -12s56 4 88 12l-192 -976c-32 8 -61.333 12 -88 12s-56 -4 -88 -12l32 144c-41.333 -41.333 -77.333 -73 -108 -95s-66 -38.333 -106 -49s-91.333 -16 -154 -16c-172 0 -258 86 -258 258
c0 9.33301 0.666992 24.666 2 45.999z" />
    <glyph glyph-name="udieresis" unicode="&#xfc;" 
d="M448 1232c7.33301 30.667 21.9971 54.334 43.9971 71.001s45.333 25 70 25c22.667 0 41.334 -7.83301 56.001 -23.5s22 -39.834 22 -72.501c-6.66699 -35.333 -20.667 -62.166 -42 -80.499s-44.666 -27.5 -69.999 -27.5c-23.333 0 -43.166 7.33301 -59.499 22
s-24.5 34 -24.5 58c0 5.33301 1.33301 14.666 4 27.999zM847.997 1232c7.33301 32 20.833 56 40.5 72s41.167 24 64.5 24c24.667 0 45.334 -8 62.001 -24s25 -40 25 -72c-4 -34 -17 -60.5 -39 -79.5s-47 -28.5 -75 -28.5c-22.667 0 -41.834 7 -57.501 21
s-23.5 33.333 -23.5 58c0 9.33301 1 19 3 29zM191.997 288l128 688.001c32 -8 61.333 -12 88 -12s56 4 88 12l-112 -624c-4 -26 -6 -50 -6 -72c0 -66 16 -115.5 48 -148.5s73 -49.5 123 -49.5c41.333 0 83.833 10.5 127.5 31.5s81 49.667 112 86s50.833 76.5 59.5 120.5
l128 656c32 -8 61.333 -12 88 -12s56 4 88 12l-192 -976c-32 8 -61.333 12 -88 12s-56 -4 -88 -12l32 144c-41.333 -41.333 -77.333 -73 -108 -95s-66 -38.333 -106 -49s-91.333 -16 -154 -16c-172 0 -258 86 -258 258c0 9.33301 0.666992 24.666 2 45.999z" />
    <glyph glyph-name="yacute" unicode="&#xfd;" horiz-adv-x="1024" 
 />
    <glyph glyph-name="thorn" unicode="&#xfe;" horiz-adv-x="1137" 
 />
    <glyph glyph-name="ydieresis" unicode="&#xff;" horiz-adv-x="1024" 
d="M448 1232c7.33301 30.667 21.9971 54.334 43.9971 71.001s45.333 25 70 25c22.667 0 41.334 -7.83301 56.001 -23.5s22 -39.834 22 -72.501c-6.66699 -35.333 -20.667 -62.166 -42 -80.499s-44.666 -27.5 -69.999 -27.5c-23.333 0 -43.166 7.33301 -59.499 22
s-24.5 34 -24.5 58c0 5.33301 1.33301 14.666 4 27.999zM847.997 1232c7.33301 32 20.833 56 40.5 72s41.167 24 64.5 24c24.667 0 45.334 -8 62.001 -24s25 -40 25 -72c-4 -34 -17 -60.5 -39 -79.5s-47 -28.5 -75 -28.5c-22.667 0 -41.834 7 -57.501 21
s-23.5 33.333 -23.5 58c0 9.33301 1 19 3 29zM447.997 0l-61.501 286.999c-18.333 82 -40.666 176.667 -66.999 284l-59 238.5l-36.5 150.5c32 -8 66.667 -12 104 -12s72 4 104 12c7.33301 -53.333 18.5 -121.166 33.5 -203.499s27.833 -149.5 38.5 -201.5l41.5 -199
c17 -80.667 27.167 -130 30.5 -148l112 166.5l123.5 199.5l110.5 186.5l118 199.5c24 -8 48 -12 72 -12s48 4 72 12l-976 -1504c-24 8 -50.667 12 -80 12s-56 -4 -80 -12z" />
    <glyph glyph-name="dotlessi" unicode="&#x131;" horiz-adv-x="560" 
d="M192 0l192 992c32 -8 61.333 -12 88 -12s56 4 88 12l-192 -992c-32 8 -61.333 12 -88 12s-56 -4 -88 -12z" />
    <glyph glyph-name="OE" unicode="&#x152;" horiz-adv-x="2032" 
d="M160 576c7.33301 134 37.6689 254.999 91.002 362.999s123.166 199.833 209.499 275.5s179.833 132.334 280.5 170.001s201 56.5 301 56.5c6.66699 0 12.167 -0.166992 16.5 -0.5s8.83301 -0.5 13.5 -0.5c44.667 0 96.5 -5.66699 155.5 -17s116.5 -32.5 172.5 -63.5
s101.333 -73.5 136 -127.5l16 176h672c-21.333 -64 -32 -112 -32 -144c-58.667 14.667 -118.667 23.667 -180 27s-161.333 5 -300 5l-96 -496h224c106.667 0 181.334 5.33301 224.001 16c-10.667 -32 -16 -80 -16 -144c-53.333 10.667 -122.666 16 -207.999 16h-240
l-112 -576c26 -4.66699 64.667 -7 116 -7c91.333 0 223.333 7.66699 396 23c-15.333 -32 -23 -63 -23 -93c0 -14.667 2.33301 -26.334 7 -35.001h-704l32 192c-34.667 -42 -75.834 -77.667 -123.501 -107s-96.334 -52.166 -146.001 -68.499s-101.334 -28.5 -155.001 -36.5
s-104.167 -12 -151.5 -12c-161.333 0 -284.5 33.167 -369.5 99.5s-140.667 144 -167 233s-39.5 180.833 -39.5 275.5zM1440 735.999c10 60 15.001 115.668 15.001 167.001c0 61.333 -6.33301 117.5 -19 168.5s-34.167 97.5 -64.5 139.5s-70.5 74.833 -120.5 98.5
s-111.667 35.5 -185 35.5c-5.33301 0 -9.83301 -0.166992 -13.5 -0.5s-7.83398 -0.5 -12.501 -0.5c-162.667 -8 -296.834 -60 -402.501 -156s-190.167 -246.667 -253.5 -452c-22.667 -78 -34 -152 -34 -222c0 -88.667 17.167 -167.5 51.5 -236.5s83 -123.5 146 -163.5
s136.5 -62 220.5 -66h22c94.667 0 180.167 22.667 256.5 68s141.333 103.166 195 173.499s97.334 145.833 131.001 226.5s56.167 154 67.5 220z" />
    <glyph glyph-name="oe" unicode="&#x153;" horiz-adv-x="1808" 
d="M144 416c8 85.333 30.668 163.997 68.001 235.997s84.5 133 141.5 183s121.5 88.667 193.5 116s145.667 41 221 41c98 0 169.333 -14.667 214 -44s90.667 -73.333 138 -132c59.333 59.333 119.833 103.5 181.5 132.5s134.5 43.5 218.5 43.5
c89.333 0 160.166 -13.833 212.499 -41.5s88.5 -63.667 108.5 -108s30 -94.166 30 -149.499c0 -34 -3.5 -70.667 -10.5 -110s-13.833 -73.666 -20.5 -102.999c-53.333 10.667 -149.333 16 -288 16h-416c-16.667 -51.333 -25 -100.666 -25 -147.999
c0 -76.667 22.833 -140.5 68.5 -191.5s116.5 -76.5 212.5 -76.5c149.333 0 272 48 368 144l-32 -112c-36 -42.667 -91 -74.667 -165 -96s-141.667 -32 -203 -32c-22.667 -1.33301 -38.667 -2 -48 -2c-68 0 -124 8.83301 -168 26.5s-78 39 -102 64s-46 54.167 -66 87.5
c-16.667 -32 -38.5 -61.5 -65.5 -88.5s-70.5 -51 -130.5 -72s-138.667 -31.5 -236 -31.5c-86.667 0 -157.5 13.5 -212.5 40.5s-95.667 62 -122 105s-43.833 89.333 -52.5 139s-13 104.167 -13 163.5zM992.001 623.997c0 192 -80.001 288.001 -240.001 288.001
c-70 0 -135.833 -26.833 -197.5 -80.5s-112.167 -117.834 -151.5 -192.501s-61.666 -138.334 -66.999 -191.001c-5.33301 -36 -8 -69 -8 -99c0 -88 19.667 -160.167 59 -216.5s97 -84.5 173 -84.5c84.667 0 160 30 226 90s116.833 135.333 152.5 226
s53.5 177.334 53.5 260.001zM1696 575.998c8 38 12.001 76 12.001 114c0 76 -18.333 132 -55 168s-86.334 54 -149.001 54c-160 0 -277.333 -112 -352 -336h544z" />
    <glyph glyph-name="florin" unicode="&#x192;" 
d="M448 80l176.002 640h-208c10.667 21.333 16 53.333 16 96h208c52 121.333 99 218.666 141 291.999s93 134.5 153 183.5s128 73.5 204 73.5c24 0 44.667 -1.66699 62 -5c-32 -64 -48 -122.667 -48 -176l-16 -16c-41.333 41.333 -81.333 62 -120 62
c-66 0 -116.667 -63.333 -152 -190l-48 -224h208c-10.667 -32 -16 -64 -16 -96h-224l-208 -656c-13.333 -53.333 -31.333 -106 -54 -158s-52.334 -102 -89.001 -150s-80.5 -86.833 -131.5 -116.5s-109.167 -44.5 -174.5 -44.5c-17.333 0 -38.333 1.66699 -63 5
c17.333 17.333 32.333 40.833 45 70.5s19 59.5 19 89.5c40.667 -22 76 -33 106 -33c24.667 0 47 7.33301 67 22s38 36.334 54 65.001s31.667 65.667 47 111s30.666 97 45.999 155z" />
    <glyph glyph-name="circumflex" unicode="&#x2c6;" horiz-adv-x="672" 
d="M240 1088l320 352h128l192 -352h-80l-192 224l-288 -224h-80z" />
    <glyph glyph-name="breve" unicode="&#x2d8;" horiz-adv-x="672" 
d="M320 1408l63.999 0.00195312c12.667 -138.667 76.667 -208 192 -208c10.667 -1.33301 18.667 -2 24 -2c56 0 104.5 20.667 145.5 62s69.833 90.666 86.5 147.999h64c0 -32.667 -8.33301 -68.167 -25 -106.5s-41.5 -75.5 -74.5 -111.5s-70.833 -64.667 -113.5 -86
s-89 -32 -139 -32c-61.333 3.33301 -109 16.333 -143 39s-56.5 50.5 -67.5 83.5s-16.5 70.167 -16.5 111.5c0.666992 18 1.33398 37.167 2.00098 57.5s1 35.166 1 44.499z" />
    <glyph glyph-name="ring" unicode="&#x2da;" horiz-adv-x="672" 
d="M432 1232c8.66699 70.667 39.667 127.002 93 169.002s111.333 63 174 63c48.667 0 88.334 -13.833 119.001 -41.5s46 -69.834 46 -126.501c-2.66699 -46.667 -17.834 -88.334 -45.501 -125.001s-61.167 -65 -100.5 -85s-79.666 -30 -120.999 -30
c-48.667 0 -88.334 14.833 -119.001 44.5s-46 73.5 -46 131.5zM768 1280c0 31.333 -9.16699 54.501 -27.5 69.501s-41.833 22.5 -70.5 22.5c-34 0 -65.167 -10.667 -93.5 -32s-44.5 -52 -48.5 -92c0 -36.667 9.5 -64.334 28.5 -83.001s43.167 -28 72.5 -28
c36.667 0 69 12.667 97 38s42 60.333 42 105z" />
    <glyph glyph-name="tilde" unicode="&#x2dc;" horiz-adv-x="672" 
d="M208 1136c43.333 86.667 84.5 143.003 123.5 169.003s83.167 39 132.5 39c8 1.33301 14.333 2 19 2c20.667 0 42.167 -4.66699 64.5 -14s47.666 -22.833 75.999 -40.5s48.166 -29.334 59.499 -35.001s23.666 -8.5 36.999 -8.5c58.667 0 106.667 37.333 144 112h64
c-5.33301 -28 -20.666 -59.667 -45.999 -95s-56.833 -65.666 -94.5 -90.999s-76.167 -38 -115.5 -38c-24.667 0 -47.167 4.16699 -67.5 12.5s-43.166 20.666 -68.499 36.999s-46.333 28.166 -63 35.499s-35.667 11 -57 11c-20 0 -37.667 -4.33301 -53 -13
s-30.666 -20.834 -45.999 -36.501l-45 -46.5h-64z" />
    <glyph glyph-name="emdash" unicode="&#x2013;" horiz-adv-x="1024" 
d="M96 512h1040l-16 -96h-1040z" />
    <glyph glyph-name="endash" unicode="&#x2014;" horiz-adv-x="2032" 
d="M96 528h2032l-16 -112h-2032z" />
    <glyph glyph-name="quoteleft" unicode="&#x2018;" horiz-adv-x="560" 
d="M336 960l352 448l48 -16l-256 -496c-14 -28.667 -30.333 -49.834 -49 -63.501s-37.667 -20.5 -57 -20.5c-20 0 -36.333 6.66699 -49 20s-19 30.333 -19 51c0 24.667 10 50.334 30 77.001z" />
    <glyph glyph-name="quotedblleft" unicode="&#x201c;" horiz-adv-x="896" 
d="M688 976l352 448l48 -16l-256 -496c-14 -28.667 -30.333 -49.834 -49 -63.501s-37.667 -20.5 -57 -20.5c-20 0 -36.333 6.66699 -49 20s-19 30.333 -19 51c0 24.667 10 50.334 30 77.001zM336 976l352 448l48 -16l-256 -496c-14 -28.667 -30.333 -49.834 -49 -63.501
s-37.667 -20.5 -57 -20.5c-20 0 -36.333 6.66699 -49 20s-19 30.333 -19 51c0 24.667 10 50.334 30 77.001z" />
    <glyph glyph-name="quotedblright" unicode="&#x201d;" horiz-adv-x="896" 
d="M624 831l255.999 496c24.667 45.333 55 68 91 68c18.667 0 34.834 -7.16699 48.501 -21.5s20.5 -31.5 20.5 -51.5c0 -24.667 -10.667 -49.667 -32 -75l-352 -432zM271.999 831l255.999 496c24.667 45.333 55 68 91 68c18.667 0 34.834 -7.16699 48.501 -21.5
s20.5 -31.5 20.5 -51.5c0 -24.667 -10.667 -49.667 -32 -75l-352 -432z" />
    <glyph glyph-name="quotedblbase" unicode="&#x201e;" horiz-adv-x="896" 
d="M400 -352h-48l224 432c25.333 53.333 51.5 92.5 78.5 117.5s52.5 37.5 76.5 37.5c17.333 0 31.5 -6.33301 42.5 -19s16.5 -28.667 16.5 -48c0 -28.667 -12.667 -58 -38 -88zM48 -352h-48l224 432c25.333 53.333 51.5 92.5 78.5 117.5s52.5 37.5 76.5 37.5
c17.333 0 31.5 -6.33301 42.5 -19s16.5 -28.667 16.5 -48c0 -28.667 -12.667 -58 -38 -88z" />
    <glyph glyph-name="dagger" unicode="&#x2020;" horiz-adv-x="1024" 
d="M272 944l352 -16l96 480c24 -8 50.667 -12 80 -12s56 4 80 12l-96 -480l352 16c-10.667 -42.667 -16 -96 -16 -160l-352 16l-160 -800c-24 8 -50.667 12 -80 12s-56 -4 -80 -12l160 800l-352 -16c10.667 32 16 85.333 16 160z" />
    <glyph glyph-name="daggerdbl" unicode="&#x2021;" horiz-adv-x="1024" 
d="M624 1024l80 384c24 -8 48.667 -12 74 -12s54 4 86 12l-80 -384l352 16c-10.667 -32 -16 -80 -16 -144l-352 16l-80 -416l352 16c-15.333 -47.333 -23 -83.666 -23 -108.999c0 -14.667 2.33301 -26.334 7 -35.001l-352 16l-80 -384c-24 8 -48.667 12 -74 12
s-54 -4 -86 -12l80 384l-352 -16c10.667 32 16 80 16 144l352 -16l80 416l-352 -16c15.333 47.333 23 81.333 23 102c0 14.667 -2.33301 28.667 -7 42z" />
    <glyph glyph-name="bullet" unicode="&#x2022;" horiz-adv-x="1232" 
d="M256 512c8.66699 43.333 28 77.5 58 102.5s62 37.5 96 37.5c29.333 0 53.666 -10.167 72.999 -30.5s29 -51.5 29 -93.5c-7.33301 -44 -24.5 -77.333 -51.5 -100s-57.167 -34 -90.5 -34c-31.333 0 -58.166 10.333 -80.499 31s-33.5 49.667 -33.5 87z" />
    <glyph glyph-name="ellipsis" unicode="&#x2026;" horiz-adv-x="2032" 
d="M1599 80c4.66699 49.333 21.832 87.833 51.499 115.5s62.834 41.5 99.501 41.5c29.333 0 54.166 -9.33301 74.499 -28s30.5 -45.667 30.5 -81c-4 -49.333 -20.167 -87.833 -48.5 -115.5s-60.166 -41.5 -95.499 -41.5c-28 0 -52.667 9.33301 -74 28s-34 45.667 -38 81z
M927.998 80c4.66699 49.333 21.832 87.833 51.499 115.5s62.834 41.5 99.501 41.5c29.333 0 54.166 -9.33301 74.499 -28s30.5 -45.667 30.5 -81c-4 -49.333 -20.167 -87.833 -48.5 -115.5s-60.166 -41.5 -95.499 -41.5c-28 0 -52.667 9.33301 -74 28s-34 45.667 -38 81z
M255.996 80c4.66699 49.333 21.832 87.833 51.499 115.5s62.834 41.5 99.501 41.5c29.333 0 54.166 -9.33301 74.499 -28s30.5 -45.667 30.5 -81c-4 -49.333 -20.167 -87.833 -48.5 -115.5s-60.166 -41.5 -95.499 -41.5c-28 0 -52.667 9.33301 -74 28s-34 45.667 -38 81z
" />
    <glyph glyph-name="perthousand" unicode="&#x2030;" horiz-adv-x="2032" 
d="M304 1040c50 224 167.333 336 352 336c72 0 130.167 -18.667 174.5 -56s66.5 -106 66.5 -206c0 -18 -0.333008 -32 -1 -42c-5.33301 -61.333 -25 -119 -59 -173s-78.167 -97.5 -132.5 -130.5s-110.5 -49.5 -168.5 -49.5c-10.667 0 -18.667 0.333008 -24 1
c-77.333 6.66699 -132.833 27 -166.5 61s-50.5 85.333 -50.5 154c0 30.667 3 65.667 9 105zM240 -80l1104 1504h112l-1104 -1504h-112zM816 256c4.66699 66.667 24.166 128.333 58.499 185s79 101.334 134 134.001s113.5 49 175.5 49c78 0 137.5 -24.667 178.5 -74
s61.5 -115.333 61.5 -198c-4.66699 -76 -26 -143.333 -64 -202s-84.5 -103.667 -139.5 -135s-109.833 -47 -164.5 -47c-52 0 -95.667 7.33301 -131 22s-62.666 39.5 -81.999 74.5s-29 83.5 -29 145.5c0 9.33301 0.666992 24.666 2 45.999zM1488 303.999
c5.33301 49.333 23.332 99.167 53.999 149.5s71.5 91.333 122.5 123s109.5 47.5 175.5 47.5c66.667 0 121.5 -19.5 164.5 -58.5s64.5 -94.5 64.5 -166.5c0 -23.333 -1.66699 -44.333 -5 -63c-14.667 -126.667 -54.667 -219.667 -120 -279s-142.666 -89 -231.999 -89
c-57.333 0 -103.333 9.16699 -138 27.5s-59.5 43.833 -74.5 76.5s-22.5 72.667 -22.5 120c0 32.667 3.66699 70 11 112zM1920 288c7.33301 48.667 11 92.667 11 132c0 104 -30.333 156 -91 156c-46 0 -88 -26.333 -126 -79s-65.333 -117 -82 -193
c-15.333 -56 -23 -104.667 -23 -146c0 -94.667 34.333 -142 103 -142c52 0 95.167 25.167 129.5 75.5s60.5 115.833 78.5 196.5zM1264 320c10.667 56.667 15.998 97.3311 15.998 121.998c0 80.667 -32 125.334 -96 134.001c-43.333 0 -86.166 -22.333 -128.499 -67
s-74.166 -123.667 -95.499 -237c-7.33301 -39.333 -11 -73.333 -11 -102c0 -102.667 35.667 -154 107 -154c38.667 0 72.667 17.167 102 51.5s52.833 75.833 70.5 124.5s29.5 91.334 35.5 128.001zM735.996 1040c5.33301 46.667 7.99805 83.666 7.99805 110.999
c0 118 -34.667 177 -104 177c-33.333 0 -69.833 -28.667 -109.5 -86s-67.167 -124.666 -82.5 -201.999c-3.33301 -21.333 -6 -37.5 -8 -48.5s-3.83301 -24.833 -5.5 -41.5s-2.5 -33 -2.5 -49c0 -88.667 32 -133 96 -133c46.667 0 89.334 21.5 128.001 64.5
s65.334 112.167 80.001 207.5z" />
    <glyph glyph-name="guilsinglleft" unicode="&#x2039;" horiz-adv-x="672" 
d="M256 464l352 383.999c3.33301 -7.33301 8.33301 -15.666 15 -24.999s14.667 -17.333 24 -24s17.666 -11.667 24.999 -15l-304 -320l160 -336c-16 -6.66699 -32.667 -14 -50 -22s-32.666 -22 -45.999 -42z" />
    <glyph glyph-name="guilsinglright" unicode="&#x203a;" horiz-adv-x="672" 
d="M480 448l-160.001 335.999c22 0 38.833 3.33301 50.5 10s26.834 19.334 45.501 38.001l176 -400l-320 -368c-32 32 -58.667 53.333 -80 64z" />
    <glyph glyph-name="trademark" unicode="&#x2122;" horiz-adv-x="1936" 
d="M480 544l144.001 784c-106.667 0 -197.334 -5.33301 -272.001 -16l16 80h640l-16 -80c-42.667 10.667 -128 16 -256 16l-144 -784c-16 8 -34.667 12 -56 12s-40 -4 -56 -12zM976.001 544l271.996 848.002h32c14 -46.667 30.833 -97.834 50.5 -153.501l64.5 -178l63 -169
l46 -123.5l464 624h32l-64 -848c-16 8 -35.333 12 -58 12s-46 -4 -70 -12c14.667 86.667 26.5 177.667 35.5 273s18.5 212.333 28.5 351l-104 -145l-133 -183.5c-43.333 -60.333 -79.166 -112.333 -107.499 -156s-52.166 -84.834 -71.499 -123.501h-16l-192 608l-47.5 -150
l-56 -179c-16.333 -54 -30.666 -105.333 -42.999 -154s-22.166 -95.667 -29.499 -141c-16 8 -32 12 -48 12s-32 -4 -48 -12z" />
    <glyph glyph-name="fi" unicode="&#xf001;" horiz-adv-x="1135" 
d="M1007 1328c7.33301 42.667 22.499 75 45.499 97s47.833 33 74.5 33c24.667 0 45.5 -8.5 62.5 -25.5s25.5 -41.167 25.5 -72.5c-3.33301 -36.667 -18.666 -66.667 -45.999 -90s-56.333 -35 -87 -35c-50 0 -75 31 -75 93zM766.999 0l176 992c32 -8 61.333 -12 88 -12
s56 4 88 12l-176 -992c-32 8 -61.333 12 -88 12s-56 -4 -88 -12zM399.999 992c11.333 43.333 27.501 90.501 48.501 141.501s44 99.667 69 146s44.5 78.5 58.5 96.5c38 46.667 84.667 88.5 140 125.5s114.333 55.5 177 55.5c15.333 0 32.333 -1.66699 51 -5
c-32 -64 -48 -117.333 -48 -160l-32 -16c-30.667 14.667 -61.334 22 -92.001 22c-26 0 -50.333 -4.5 -73 -13.5s-43.5 -22.5 -62.5 -40.5s-33.833 -39.333 -44.5 -64c-22 -51.333 -35.5 -95.5 -40.5 -132.5s-7.5 -88.833 -7.5 -155.5h224
c-21.333 -42.667 -32 -74.667 -32 -96h-192l-176 -896c-24 8 -51.333 12 -82 12s-62 -4 -94 -12l176 896h-144c5.33301 5.33301 10.5 15.666 15.5 30.999s7.5 29 7.5 41c0 11.333 -2.33301 19.333 -7 24h160z" />
    <glyph glyph-name="fl" unicode="&#xf002;" horiz-adv-x="1135" 
d="M767 0l304 1552c32 -8 61.333 -12 88 -12s56 4 88 12l-304 -1552c-24 8 -51.333 12 -82 12s-62 -4 -94 -12zM384 992c11.333 43.333 27.501 90.501 48.501 141.501s44 99.667 69 146s44.5 78.5 58.5 96.5c38 46.667 84.667 88.5 140 125.5s114.333 55.5 177 55.5
c15.333 0 32.333 -1.66699 51 -5c-32 -64 -48 -117.333 -48 -160l-32 -16c-30.667 14.667 -61.334 22 -92.001 22c-26 0 -50.333 -4.5 -73 -13.5s-43.5 -22.5 -62.5 -40.5s-33.833 -39.333 -44.5 -64c-22 -51.333 -35.5 -95.5 -40.5 -132.5s-7.5 -88.833 -7.5 -155.5h224
c-21.333 -42.667 -32 -74.667 -32 -96h-192l-176 -896c-24 8 -51.333 12 -82 12s-62 -4 -94 -12l176 896h-144c5.33301 5.33301 10.5 15.666 15.5 30.999s7.5 29 7.5 41c0 11.333 -2.33301 19.333 -7 24h160z" />
    <glyph glyph-name=".null" horiz-adv-x="0" 
 />
    <glyph glyph-name="nonmarkingreturn" horiz-adv-x="0" 
 />
    </font>
</defs>
</svg>
